<?xml version="1.0" standalone="no"?>
<!DOCTYPE svg PUBLIC "-//W3C//DTD SVG 1.1//EN" "http://www.w3.org/Graphics/SVG/1.1/DTD/svg11.dtd" >
<svg xmlns="http://www.w3.org/2000/svg">
<metadata>Generated by IcoMoon</metadata>
<defs>
<font id="icomoon" horiz-adv-x="1024">
<font-face units-per-em="1024" ascent="960" descent="-64" />
<missing-glyph horiz-adv-x="1024" />
<glyph unicode="&#x20;" horiz-adv-x="512" d="" />
<glyph unicode="&#xe900;" glyph-name="packet" d="M907.612 930.154c-11.936 13.642-30.694 20.463-49.452 15.347h-1.705l-88.671-34.105c-37.514-10.231-76.735-15.347-115.956-15.347h-279.658c-39.221 0-78.44 5.116-115.956 15.347l-88.671 34.105h-1.705c-17.052 5.116-37.514-1.705-49.452-15.347-13.642-15.347-17.052-34.105-8.527-51.157l46.041-119.365c-44.337-202.923-44.337-419.486 0-646.281l-40.925-117.661c-6.82-17.052-3.411-37.514 8.527-51.157 10.231-11.936 23.874-18.758 39.221-18.758 3.411 0 6.82 0 10.231 0l100.609 17.052c6.82 1.705 13.642 1.705 20.463 3.411 8.527 0 15.347 1.705 23.874 3.411 28.99 5.116 59.684 8.527 86.967 8.527h218.27c27.283 0 57.977-3.411 86.967-10.231 6.82-1.705 15.347-1.705 23.874-3.411 6.82-1.705 13.642-1.705 20.463-3.411l100.609-17.052c18.758-3.411 35.81 3.411 47.746 17.052 11.936 15.347 15.347 34.105 8.527 51.157l-39.221 119.365c44.337 235.321 44.337 451.885 0 646.281l46.041 119.365c8.523 18.758 5.114 37.516-8.529 52.863zM885.445 890.933l-49.452-124.481c0-3.411 0-6.82 0-10.231 44.337-192.691 44.337-407.55 0-641.165 0-3.411 0-6.82 0-8.527l42.63-124.481c1.705-5.116 0-11.936-3.411-17.052-1.705-1.705-6.82-6.82-15.347-5.116l-100.609 17.052c-6.82 1.705-13.642 1.705-20.463 3.411-8.527 1.705-17.052 1.705-23.874 3.411-32.399 5.116-64.799 8.527-93.787 8.527h-218.268c-30.694 0-61.388-3.411-93.787-8.527-8.527-1.705-15.347-1.705-23.874-3.411-6.82-1.705-13.642-1.705-20.463-3.411l-100.609-17.052c-8.527-1.705-13.642 3.411-15.347 5.116-3.411 5.116-5.116 11.936-1.705 18.758l40.925 122.776c0 3.411 0 5.116 0 8.527-44.337 225.090-44.337 441.653 0 641.165 0 3.411 0 6.82 0 8.527l-49.45 124.479c-3.411 6.82-1.705 13.642 3.411 18.758 1.705 1.705 5.116 5.116 10.231 5.116 1.705 0 3.411 0 3.411 0l88.671-35.81h1.705c40.925-10.231 83.556-15.347 126.188-15.347h279.658c42.63 0 85.262 5.116 124.481 17.052h1.705l88.671 34.105c8.527 1.705 13.642-3.411 15.347-5.116 5.116-5.116 6.82-11.938 3.411-17.054zM699.574 759.632h-375.149c-10.231 0-17.052-6.82-17.052-17.052v-272.838c0-10.231 6.82-17.052 17.052-17.052h375.149c10.231 0 17.052 6.82 17.052 17.052v272.836c0.002 10.231-6.82 17.054-17.052 17.054zM682.522 486.794h-341.046v238.733h341.046v-238.733zM460.843 640.265h102.314c10.231 0 17.052 6.82 17.052 17.052s-6.82 17.052-17.052 17.052h-102.314c-10.231 0-17.052-6.82-17.052-17.052-0.002-10.229 6.82-17.052 17.052-17.052zM409.686 555.005h204.627c10.231 0 17.052 6.82 17.052 17.052s-6.82 17.052-17.052 17.052h-204.627c-10.231 0-17.052-6.82-17.052-17.052s6.82-17.052 17.052-17.052z" />
<glyph unicode="&#xe901;" glyph-name="farmer" d="M1022.692 219.866l-9.678 20.536c-4.208 8.93-16.234 10.624-22.736 3.174l-73.224-83.844v114.008c0 17.87-14.484 32.354-32.354 32.354h-173.396c-17.87 0-32.356-14.486-32.356-32.354v-42.784l-24.948 14.916c-9.13 5.458-20.754-1.134-20.754-11.77v-26.652c0-4.398 2.11-8.53 5.672-11.11l40.030-28.982v-209.922c0-17.872 14.486-32.356 32.356-32.356h173.396c17.87 0 32.354 14.484 32.354 32.356v73.224l105.016 176.34c2.334 3.92 2.566 8.74 0.622 12.866zM540.342 578.652h-204.472l0.018-607.244c0-25.586 20.74-46.324 46.324-46.324s46.324 20.738 46.324 46.324v370.27h20.002v-370.27c0-25.586 20.74-46.324 46.324-46.324s46.324 20.738 46.324 46.324c-0.004 119.826-0.844 554.174-0.844 607.244zM471.618 439.946h-67.022c-12.598 0-22.814 10.216-22.814 22.814v64.558c0 4.038 3.274 7.312 7.312 7.312h98.024c4.038 0 7.312-3.274 7.312-7.312v-64.558c0.004-12.598-10.21-22.814-22.812-22.814zM333.838 711.626c-0.044 0-0.086-0.002-0.13-0.002-43.048-0.068-63.7-25.438-82.294-64.9l-20.898-39.376c-18.764 44.934-15.948 37.572-34.278 81.464h39.038c11.71 18.604 26.626 35.202 47.258 45.632h-106.558c-10.296 14.050-29.184 19.812-45.974 12.808-6.726-2.808-12.2-7.326-16.214-12.808h-90.974c-12.6-0.004-22.814-10.22-22.814-22.818s10.214-22.816 22.814-22.816h89.756l77.678-186.010c12.516-29.966 54.254-32.028 69.636-3.382 18.646 33.888 56.376 100.456 70.492 125.326 0.658 1.16 2.014 1.73 3.304 1.39s2.19-1.506 2.19-2.84v-10.422h30.37c0 23.442 0 76.35 0 98.752h-32.402zM400.464 711.626c0-22.504 0-75.406 0-98.752h75.29c0 48.938 0 45.926 0 98.752-17.552 0-35.458 0-75.29 0zM633.732 620.728c-0.25 50.078-41.246 90.898-91.354 90.898h-32.402c0-22.504 0-75.406 0-98.752h30.37v7.542c0 4.462 3.612 8.082 8.074 8.090 4.462 0.010 8.090-3.598 8.106-8.064-0.442-183.088-0.45-120.75 0-291.090 0.056-21.284 17.328-38.502 38.6-38.5 0.034 0 0.070 0 0.106 0 21.318 0.056 38.558 17.386 38.5 38.706-0.448 170.218-0.438 107.732 0.002 290.884-0.002 0.096-0.002 0.19-0.002 0.286zM513.63 884.778c-7.694 34.634-38.574 60.54-75.524 60.54s-67.83-25.906-75.524-60.536c-45.188-6.896-75.616-19.78-75.616-34.544 0-14.278 28.434-26.794 71.152-33.842 0.398-44.050 36.318-79.268 79.988-79.268 43.69 0 79.588 35.238 79.988 79.268 42.718 7.048 71.152 19.564 71.152 33.838 0 14.768-30.428 27.65-75.616 34.544zM802.518 734.44h-31.364v15.386c0 5.358-4.34 9.698-9.696 9.698h-50.194c-5.356 0-9.696-4.34-9.696-9.698v-15.386h-107.036c11.636-5.336 22.504-12.45 32.176-21.24 8.020-7.284 14.968-15.5 20.786-24.39h52.17c-3.538-32.438-12-64.222-25.186-94.218-2.81-6.396 1.882-13.6 8.876-13.6h106.016c6.986 0 11.692 7.192 8.876 13.6-13.186 29.998-21.648 61.78-25.186 94.218h29.458c4.098 0 7.422 3.324 7.422 7.422v30.788c0.002 4.098-3.322 7.42-7.422 7.42z" />
<glyph unicode="&#xe902;" glyph-name="inbox-full" d="M716.8 243.2h204.8v614.4h-819.2v-614.4h204.8c0-56.32 46.080-102.4 102.4-102.4h204.8c56.554 0 102.4 45.846 102.4 102.4v0zM0 857.6c0 56.32 46.080 102.4 102.4 102.4h819.2c56.554 0 102.4-45.846 102.4-102.4v0-819.2c0-56.554-45.846-102.4-102.4-102.4v0h-819.2c-56.554 0-102.4 45.846-102.4 102.4v0 819.2zM204.8 755.2h614.4v-102.4h-614.4v102.4zM204.8 601.6h614.4v-102.4h-614.4v102.4zM204.8 448h614.4v-102.4h-614.4v102.4z" />
<glyph unicode="&#xe903;" glyph-name="location" d="M512-64s-358.4 467.456-358.4 665.6c0 197.939 160.461 358.4 358.4 358.4s358.4-160.461 358.4-358.4v0c0-198.144-358.4-665.6-358.4-665.6zM512 499.2c56.554 0 102.4 45.846 102.4 102.4s-45.846 102.4-102.4 102.4v0c-56.554 0-102.4-45.846-102.4-102.4s45.846-102.4 102.4-102.4v0z" />
<glyph unicode="&#xe904;" glyph-name="user-group" d="M358.4 550.4c-113.108 0-204.8 91.692-204.8 204.8s91.692 204.8 204.8 204.8v0c113.108 0 204.8-91.692 204.8-204.8s-91.692-204.8-204.8-204.8v0zM358.4 499.2c110.080 0 215.040-20.48 312.32-55.808l-56.32-302.592h-64l-38.4-204.8h-307.2l-38.4 204.8h-64l-56.32 302.592c92.835 35.013 200.137 55.444 312.164 55.808h0.156zM783.872 490.496c67.584-9.216 132.608-24.576 194.56-47.104l-56.832-302.592h-64l-38.4-204.8h-202.752l18.944 102.4h64l84.48 452.096zM665.6 960c0.522 0.005 1.138 0.008 1.756 0.008 113.108 0 204.8-91.692 204.8-204.8s-91.692-204.8-204.8-204.8c-25.063 0-49.074 4.502-71.269 12.741l1.417-0.461c42.583 52.050 68.389 119.268 68.389 192.512s-25.805 140.462-68.82 193.056l0.431-0.544c22.016 7.168 44.032 12.288 68.096 12.288z" />
<glyph unicode="&#xe905;" glyph-name="banknote" d="M1005.28 621.248l-320 320c-15.872 15.872-38.88 22.24-60.672 16.864-11.488-2.816-21.76-8.736-29.888-16.864-7.264-7.264-12.736-16.256-15.872-26.304-14.496-47.008-39.552-87.872-76.64-124.928-49.536-49.504-114.048-87.008-182.304-126.656-72.448-41.984-147.296-85.504-208.64-146.816-52.128-52.192-87.616-110.24-108.416-177.632-7.008-22.752-0.896-47.36 15.872-64.192l320-320c15.872-15.872 38.88-22.24 60.672-16.864 11.488 2.88 21.76 8.736 29.888 16.864 7.264 7.264 12.736 16.256 15.872 26.368 14.528 47.008 39.584 87.872 76.704 124.928 49.504 49.504 113.984 86.944 182.304 126.56 72.384 42.048 147.264 85.568 208.576 146.88 52.128 52.128 87.616 110.24 108.448 177.632 6.976 22.72 0.832 47.424-15.904 64.16zM384 0c-105.984 105.984-214.016 214.048-320 320 90.944 294.432 485.12 281.568 576 576 105.984-105.952 214.048-214.016 320.064-320-90.976-294.368-485.152-281.568-576.064-576zM625.984 483.2c-10.432 8.736-20.928 14.688-31.488 17.632-10.496 2.944-20.992 4.128-31.616 3.36-10.496-0.8-21.248-3.2-32-7.328-10.752-4.192-21.568-8.736-32.448-14.016-17.184 19.744-34.368 39.264-51.552 57.376 7.744 7.008 15.264 10.56 22.496 10.816 7.264 0.32 14.24-0.448 20.864-2.112 6.752-1.696 12.928-3.136 18.624-4.256 5.76-1.12 10.752 0.128 15.136 3.808 4.64 4 7.2 9.184 7.552 15.424 0.32 6.304-2.048 12.448-7.328 18.432-6.752 7.744-14.88 12.448-24.64 14.176-9.632 1.696-19.488 1.568-29.76-0.672-10.112-2.304-19.744-6.112-28.864-11.488s-16.448-10.88-21.888-16.256c-2.080 1.984-4.16 3.936-6.24 5.888-2.304 2.112-5.184 3.264-8.64 3.2-3.488 0-6.368-1.504-8.736-4.256-2.304-2.688-3.36-5.824-2.944-9.12 0.32-3.424 1.696-6.048 4.064-8.064 2.080-1.76 4.16-3.488 6.24-5.312-8.192-9.888-14.944-20.8-20.256-32.32-5.376-11.552-8.576-23.008-9.76-34.112-1.248-11.2-0.064-21.44 3.36-30.944 3.424-9.568 9.76-17.696 19.008-25.376 15.072-12.512 32.8-17.824 53.376-16.64 20.512 1.248 42.624 7.36 66.4 20.128 18.88-21.824 37.824-43.488 56.736-63.616-8-6.752-15.008-10.624-21.184-11.872-6.176-1.312-11.68-1.184-16.672 0.32-4.992 1.568-9.632 3.808-13.888 6.688-4.256 2.944-8.448 5.44-12.64 7.488-4.128 2.048-8.384 3.2-12.736 3.264s-8.992-2.048-14.112-6.432c-5.248-4.576-7.872-9.888-7.872-15.872 0-5.952 2.752-12 8.128-18.112 5.44-6.112 12.512-11.264 21.056-15.328s18.208-6.624 28.832-7.328c10.624-0.736 21.824 0.864 33.632 5.248 11.872 4.32 23.616 12.128 35.2 23.744 5.568-5.44 11.2-10.624 16.8-15.616 2.368-2.048 5.248-3.072 8.736-2.816 3.36 0.128 6.304 1.696 8.64 4.512 2.368 2.88 3.36 6.048 3.008 9.376-0.32 3.36-1.696 5.952-4 7.808-5.632 4.512-11.264 9.248-16.864 14.24 9.568 11.744 17.248 24.128 22.944 36.384 5.696 12.32 9.056 24.192 10.176 35.2 1.12 11.072-0.192 21.056-3.808 30.112-3.584 9.184-9.952 17.056-19.072 24.64zM447.072 461.504c-9.056-0.384-16.96 2.624-23.872 9.312-2.944 2.816-4.992 6.24-6.24 10.304-1.312 4.064-1.76 8.512-1.248 13.376 0.448 4.8 1.888 9.824 4.384 14.88 2.368 5.056 5.888 10.112 10.368 15.008 16.224-16.128 32.416-33.824 48.64-52.128-12.288-6.752-22.976-10.368-32.032-10.752zM598.016 397.44c-2.88-5.312-6.176-10.048-10.048-14.176-17.952 18.112-35.872 38.016-53.76 58.432 4.576 2.048 9.376 4.192 14.56 6.368s10.368 3.616 15.552 4.512c5.312 0.8 10.56 0.576 15.808-0.672 5.184-1.312 10.112-4.128 14.688-8.576 4.512-4.512 7.36-9.184 8.512-14.24 1.248-5.12 1.312-10.304 0.448-15.616-0.928-5.344-2.816-10.656-5.76-16.032zM470.944 250.24c6.304 5.088 15.584 4.832 21.376-1.056 6.272-6.24 6.272-16.448 0-22.688-0.512-0.512-1.056-0.864-1.632-1.312l0.064-0.064c-20.256-15.392-36.896-29.248-54.848-47.2-16.224-16.192-30.88-33.248-43.552-50.56l-20.448-28c-0.64-1.152-1.408-2.208-2.368-3.2-6.272-6.24-16.48-6.24-22.72 0-5.44 5.44-6.112 13.824-2.112 20.064l-0.064 0.064 21.888 29.888c13.664 18.688 29.376 36.992 46.752 54.368 18.080 18.144 37.6 34.336 57.6 49.696h0.064zM588.096 713.12c16.192 16.192 30.816 33.184 43.52 50.592l21.248 29.12c0.768 1.376 1.632 2.752 2.816 3.936 6.304 6.304 16.512 6.304 22.816 0 5.984-6.016 6.24-15.52 0.8-21.888l0.064-0.064-21.888-30.016c-13.696-18.688-29.376-36.928-46.752-54.304-18.080-18.080-37.568-34.336-57.568-49.696l-0.128 0.064c-6.368-5.856-16.256-5.728-22.368 0.448-6.304 6.304-6.304 16.576 0 22.88 1.12 1.184 2.432 2.016 3.744 2.752 18.816 14.368 36.96 29.44 53.696 46.176z" />
<glyph unicode="&#xe906;" glyph-name="food" d="M944 288h-86.112c-1.44 7.648-3.2 15.136-5.12 22.592l153.568 76.768c15.808 7.904 22.176 27.136 14.304 42.944-7.936 15.808-27.072 22.144-42.944 14.304l-146.496-73.216c-55.872 120.576-177.76 204.608-319.2 204.608-172.224 0-315.68-124.416-345.888-288h-86.112c-44.096 0-80-35.872-80-80 0-15.68 5.76-30.816 16.16-42.528l111.84-125.824v-23.648c0-44.128 35.904-80 80-80h608c44.128 0 80 35.872 80 80v23.648l111.808 125.824c10.432 11.712 16.192 26.848 16.192 42.528 0 44.128-35.872 80-80 80zM825.568 288h-17.984l15.936 8c0.608-2.688 1.472-5.28 2.048-8zM512 544c128.928 0 240-76.8 290.624-186.912l-28.512-14.24c-45.312 99.68-145.472 169.152-262.112 169.152-137.024 0-251.488-95.776-280.64-224h-32.896c29.728 145.888 159.008 256 313.536 256zM658.432 288c-24.736 56.416-80.992 96-146.432 96s-121.664-39.584-146.432-96h-34.368c26.432 74.432 97.376 128 180.8 128 78.88 0 146.816-47.872 176.256-116.064l-29.824-11.936zM512 320c-28.256 0-53.44-12.512-71.040-32h-39.168c22.208 38.048 63.040 64 110.208 64 47.136 0 88-25.952 110.176-64h-39.2c-17.536 19.488-42.72 32-70.976 32zM512 448c-101.28 0-186.944-67.584-214.56-160h-33.024c28.544 110.208 128.544 192 247.584 192 103.872 0 193.376-62.336 233.44-151.488l-28.576-14.272c-34.816 78.624-113.504 133.76-204.864 133.76zM832 64v-48c0-8.832-7.2-16-16-16h-608c-8.832 0-16 7.168-16 16v48l-128 144c0 8.832 7.168 16 16 16h864c8.8 0 16-7.168 16-16l-128-144zM255.264 585.216c-0.224 0.448-0.384 0.864-0.576 1.344-16.608 40.096-0.096 79.424 14.816 114.912 14.112 33.664 26.624 63.488 13.696 92.576-0.064 0.128-0.096 0.256-0.16 0.384-0.032 0.096-0.064 0.192-0.096 0.288-0.032 0.064-0.032 0.128-0.032 0.192-0.64 1.696-1.024 3.488-1.024 5.408 0 8.64 7.008 15.68 15.68 15.68 6.656 0 12.32-4.16 14.592-10.016 17.856-40.672 1.632-80.672-13.504-116.704-14.016-33.344-25.408-64.32-13.408-92.544 0.064-0.224 0.064-0.416 0-0.64 0.352-1.28 0.576-2.624 0.576-4 0-8.864-7.2-16.096-16.064-16.096-6.208 0-11.52 3.52-14.176 8.64-0.032 0-0.064 0-0.064 0-0.096 0.192-0.16 0.384-0.256 0.576zM644.928 589.888c-0.192 0.416-0.352 0.864-0.512 1.28-16.608 40.096-0.128 79.456 14.752 114.944 14.144 33.664 26.624 63.488 13.696 92.576 0 0.128-0.064 0.256-0.128 0.384-0.064 0.096-0.064 0.192-0.128 0.288 0 0.064 0 0.128 0 0.192-0.608 1.696-1.056 3.488-1.056 5.408 0 8.64 7.040 15.68 15.68 15.68 6.688 0 12.32-4.128 14.624-10.016 17.856-40.672 1.632-80.672-13.504-116.704-14.016-33.344-25.376-64.32-13.44-92.544 0.128-0.224 0.128-0.416 0.064-0.64 0.32-1.28 0.576-2.624 0.576-4 0-8.864-7.264-16.096-16.128-16.096-6.176 0-11.488 3.552-14.176 8.672h-0.064c-0.064 0.192-0.128 0.384-0.256 0.576zM480.608 729.216c-0.224 0.448-0.384 0.864-0.608 1.312-16.64 40.096-0.128 79.456 14.784 114.944 14.112 33.664 26.624 63.488 13.696 92.576-0.032 0.128-0.096 0.256-0.128 0.384-0.032 0.096-0.064 0.192-0.096 0.288-0.032 0.064-0.032 0.128-0.032 0.192-0.64 1.696-1.024 3.488-1.024 5.408 0 8.64 7.040 15.68 15.68 15.68 6.688 0 12.32-4.16 14.624-10.048 17.856-40.672 1.632-80.672-13.504-116.704-14.016-33.344-25.408-64.32-13.408-92.544 0.064-0.224 0.064-0.416 0-0.64 0.352-1.28 0.576-2.624 0.576-4 0-8.864-7.2-16.096-16.064-16.096-6.176 0-11.488 3.552-14.176 8.672-0.032 0-0.064 0-0.064 0-0.096 0.192-0.16 0.384-0.256 0.576z" />
<glyph unicode="&#xe907;" glyph-name="shop" d="M1004.8 601.6l-96 127.936c-3.744 5.024-8.192 9.376-12.8 13.536v152.928c0 35.328-28.672 64-64 64h-640c-35.36 0-64-28.672-64-64v-152.96c-4.608-4.128-9.056-8.448-12.8-13.44l-95.968-127.968c-12.416-16.512-19.232-36.96-19.232-57.632v-32c0-52.928 43.072-96 96-96v0-416c0-35.328 28.672-64 64-64h704c35.328 0 64 28.672 64 64v416c52.928 0 96 43.072 96 96v32c0 20.672-6.816 41.12-19.2 57.6zM832 896v-128h-640v128h640zM326.176 480h-134.048l128 224h70.048l-64-224zM423.488 704h72.512v-224h-136.512l64 224zM528 704h72.512l64-224h-136.512v224zM633.76 704h70.048l128-224h-134.048l-64 224zM64 512v32c0 6.944 2.24 13.664 6.4 19.2l96 128c6.048 8.064 15.52 12.8 25.6 12.8h91.264l-128-224h-59.264c-17.664 0-32 14.304-32 32zM640 0h-240v320h240v-320zM864 0h-192v320c0 17.696-14.368 32-32 32h-240c-17.664 0-32-14.304-32-32v-320h-208v416h704v-416zM960 512c0-17.696-14.304-32-32-32h-59.328l-128 224h91.328c10.048 0 19.552-4.736 25.568-12.8l96-128c4.192-5.536 6.432-12.256 6.432-19.2v-32z" />
<glyph unicode="&#xe908;" glyph-name="location-restroom" d="M614.4 153.6h-153.6l102.4 230.4v128c0 56.32 46.080 102.4 102.4 102.4h102.4c56.554 0 102.4-45.846 102.4-102.4v0-128l102.4-230.4h-153.6v-204.8h-204.8v204.8zM358.4 307.2h102.4v204.8c0 56.554-45.846 102.4-102.4 102.4v0h-204.8c-56.554 0-102.4-45.846-102.4-102.4v0-204.8h102.4v-358.4h204.8v358.4zM256 665.6c-84.831 0-153.6 68.769-153.6 153.6s68.769 153.6 153.6 153.6v0c84.831 0 153.6-68.769 153.6-153.6s-68.769-153.6-153.6-153.6v0zM716.8 665.6c-84.831 0-153.6 68.769-153.6 153.6s68.769 153.6 153.6 153.6v0c84.831 0 153.6-68.769 153.6-153.6s-68.769-153.6-153.6-153.6v0z" />
<glyph unicode="&#xe909;" glyph-name="store-front" d="M921.6 467.456v-518.656h-819.2v518.656c15.389-3.889 33.056-6.12 51.245-6.12 37.467 0 72.723 9.469 103.504 26.146l-1.149-0.569v-230.912h512v230.4c29.492-15.869 64.538-25.194 101.761-25.194 18.402 0 36.272 2.279 53.343 6.57l-1.505-0.32zM153.6 972.8h204.8l-34.304-308.736c-11.832-85.147-83.292-150.251-170.311-152.061l-0.185-0.003c-84.992 0-132.096 65.024-104.96 145.92l104.96 314.88zM409.6 972.8h204.8l35.84-322.56c8.704-76.8-46.592-138.24-123.904-138.24h-28.672c-0.941-0.026-2.049-0.041-3.16-0.041-67.299 0-121.856 54.557-121.856 121.856 0 5.793 0.404 11.491 1.186 17.068l-0.074-0.643 35.84 322.56zM665.6 972.8h204.8l104.96-314.88c27.136-80.896-20.48-145.92-104.96-145.92-87.29 1.589-158.873 66.812-170.394 151.155l-0.102 0.909-34.304 308.736z" />
<glyph unicode="&#xe90a;" glyph-name="disbursed" d="M1005.28 621.248l-320 320c-15.872 15.872-38.88 22.24-60.672 16.864-11.488-2.816-21.76-8.736-29.888-16.864-7.264-7.264-12.736-16.256-15.872-26.304-14.496-47.008-39.552-87.872-76.64-124.928-49.536-49.504-114.048-87.008-182.304-126.656-72.448-41.984-147.296-85.504-208.64-146.816-52.128-52.192-87.616-110.24-108.416-177.632-7.008-22.752-0.896-47.36 15.872-64.192l320-320c15.872-15.872 38.88-22.24 60.672-16.864 11.488 2.88 21.76 8.736 29.888 16.864 7.264 7.264 12.736 16.256 15.872 26.368 14.528 47.008 39.584 87.872 76.704 124.928 49.504 49.504 113.984 86.944 182.304 126.56 72.384 42.048 147.264 85.568 208.576 146.88 52.128 52.128 87.616 110.24 108.448 177.632 6.976 22.72 0.832 47.424-15.904 64.16zM384 0c-105.984 105.984-214.016 214.048-320 320 90.944 294.432 485.12 281.568 576 576 105.984-105.952 214.048-214.016 320.064-320-90.976-294.368-485.152-281.568-576.064-576zM625.984 483.2c-10.432 8.736-20.928 14.688-31.488 17.632-10.496 2.944-20.992 4.128-31.616 3.36-10.496-0.8-21.248-3.2-32-7.328-10.752-4.192-21.568-8.736-32.448-14.016-17.184 19.744-34.368 39.264-51.552 57.376 7.744 7.008 15.264 10.56 22.496 10.816 7.264 0.32 14.24-0.448 20.864-2.112 6.752-1.696 12.928-3.136 18.624-4.256 5.76-1.12 10.752 0.128 15.136 3.808 4.64 4 7.2 9.184 7.552 15.424 0.32 6.304-2.048 12.448-7.328 18.432-6.752 7.744-14.88 12.448-24.64 14.176-9.632 1.696-19.488 1.568-29.76-0.672-10.112-2.304-19.744-6.112-28.864-11.488s-16.448-10.88-21.888-16.256c-2.080 1.984-4.16 3.936-6.24 5.888-2.304 2.112-5.184 3.264-8.64 3.2-3.488 0-6.368-1.504-8.736-4.256-2.304-2.688-3.36-5.824-2.944-9.12 0.32-3.424 1.696-6.048 4.064-8.064 2.080-1.76 4.16-3.488 6.24-5.312-8.192-9.888-14.944-20.8-20.256-32.32-5.376-11.552-8.576-23.008-9.76-34.112-1.248-11.2-0.064-21.44 3.36-30.944 3.424-9.568 9.76-17.696 19.008-25.376 15.072-12.512 32.8-17.824 53.376-16.64 20.512 1.248 42.624 7.36 66.4 20.128 18.88-21.824 37.824-43.488 56.736-63.616-8-6.752-15.008-10.624-21.184-11.872-6.176-1.312-11.68-1.184-16.672 0.32-4.992 1.568-9.632 3.808-13.888 6.688-4.256 2.944-8.448 5.44-12.64 7.488-4.128 2.048-8.384 3.2-12.736 3.264s-8.992-2.048-14.112-6.432c-5.248-4.576-7.872-9.888-7.872-15.872 0-5.952 2.752-12 8.128-18.112 5.44-6.112 12.512-11.264 21.056-15.328s18.208-6.624 28.832-7.328c10.624-0.736 21.824 0.864 33.632 5.248 11.872 4.32 23.616 12.128 35.2 23.744 5.568-5.44 11.2-10.624 16.8-15.616 2.368-2.048 5.248-3.072 8.736-2.816 3.36 0.128 6.304 1.696 8.64 4.512 2.368 2.88 3.36 6.048 3.008 9.376-0.32 3.36-1.696 5.952-4 7.808-5.632 4.512-11.264 9.248-16.864 14.24 9.568 11.744 17.248 24.128 22.944 36.384 5.696 12.32 9.056 24.192 10.176 35.2 1.12 11.072-0.192 21.056-3.808 30.112-3.584 9.184-9.952 17.056-19.072 24.64zM447.072 461.504c-9.056-0.384-16.96 2.624-23.872 9.312-2.944 2.816-4.992 6.24-6.24 10.304-1.312 4.064-1.76 8.512-1.248 13.376 0.448 4.8 1.888 9.824 4.384 14.88 2.368 5.056 5.888 10.112 10.368 15.008 16.224-16.128 32.416-33.824 48.64-52.128-12.288-6.752-22.976-10.368-32.032-10.752zM598.016 397.44c-2.88-5.312-6.176-10.048-10.048-14.176-17.952 18.112-35.872 38.016-53.76 58.432 4.576 2.048 9.376 4.192 14.56 6.368s10.368 3.616 15.552 4.512c5.312 0.8 10.56 0.576 15.808-0.672 5.184-1.312 10.112-4.128 14.688-8.576 4.512-4.512 7.36-9.184 8.512-14.24 1.248-5.12 1.312-10.304 0.448-15.616-0.928-5.344-2.816-10.656-5.76-16.032zM470.944 250.24c6.304 5.088 15.584 4.832 21.376-1.056 6.272-6.24 6.272-16.448 0-22.688-0.512-0.512-1.056-0.864-1.632-1.312l0.064-0.064c-20.256-15.392-36.896-29.248-54.848-47.2-16.224-16.192-30.88-33.248-43.552-50.56l-20.448-28c-0.64-1.152-1.408-2.208-2.368-3.2-6.272-6.24-16.48-6.24-22.72 0-5.44 5.44-6.112 13.824-2.112 20.064l-0.064 0.064 21.888 29.888c13.664 18.688 29.376 36.992 46.752 54.368 18.080 18.144 37.6 34.336 57.6 49.696h0.064zM588.096 713.12c16.192 16.192 30.816 33.184 43.52 50.592l21.248 29.12c0.768 1.376 1.632 2.752 2.816 3.936 6.304 6.304 16.512 6.304 22.816 0 5.984-6.016 6.24-15.52 0.8-21.888l0.064-0.064-21.888-30.016c-13.696-18.688-29.376-36.928-46.752-54.304-18.080-18.080-37.568-34.336-57.568-49.696l-0.128 0.064c-6.368-5.856-16.256-5.728-22.368 0.448-6.304 6.304-6.304 16.576 0 22.88 1.12 1.184 2.432 2.016 3.744 2.752 18.816 14.368 36.96 29.44 53.696 46.176zM271.114 695.383c0-6 4.971-10.971 10.971-10.971s10.971 4.971 10.971 10.971-4.971 10.971-10.971 10.971-10.971-4.971-10.971-10.971zM73.629 794.126c0-6.343 4.8-21.771 12.857-21.943-3.6-4.114-6-12.171-6-17.657 0-8.057 3.257-14.914 9.086-20.4-2.057-3.6-3.086-7.714-3.086-11.829 0-7.886 3.943-17.657 11.143-21.6-0.514-3.086-0.857-6.343-0.857-9.6 0-20.057 12.686-28.629 31.714-28.629h21.943c20.229 0 39.771 6 58.629 12.514 9.257 3.257 25.029 9.429 34.629 9.429h5.486v109.714h-5.486c-13.543 0-33.943 29.314-41.657 39.257-4.286 5.314-8.4 10.629-13.2 15.6-16.629 17.486-10.971 43.714-21.943 54.857-23.486 0-27.429-12.857-27.429-32.914 0-20.229 16.457-34.8 16.457-54.857h-60.343c-11.486 0-21.943-10.286-21.943-21.943zM51.686 794.297c0 23.657 20.229 43.714 43.886 43.714h30.171c-5.143 10.629-8.229 20.914-8.229 32.914 0 11.314 0.686 21.6 6 31.886 8.4 16.629 25.543 22.971 43.371 22.971 5.829 0 11.314-2.4 15.429-6.343 17.143-16.8 11.829-43.886 21.943-55.029 6.514-6.857 12.514-14.229 18.343-21.771 5.143-6.686 16.8-22.114 23.486-26.571h46.971c12.171 0 21.943-9.771 21.943-21.943v-109.714c0-12.171-9.771-21.943-21.943-21.943h-49.371c-4.8 0-18.686-5.143-23.657-6.857-24.686-8.571-46.114-15.086-72.514-15.086h-19.2c-31.2 0-53.657 18.514-53.486 50.571v0.857c-6.686 8.571-10.286 19.543-10.286 30.514 0 2.4 0.171 4.971 0.514 7.371-4.286 7.543-6.514 16.114-6.514 24.686 0 3.943 0.514 8.057 1.543 11.829-5.486 8.229-8.4 18-8.4 27.943z" />
<glyph unicode="&#xe90b;" glyph-name="thumbs-up1" d="M563.2 972.8h51.2v-153.6l153.6-358.4v-409.6c0-56.554-45.846-102.4-102.4-102.4v0h-409.6c-56.32 0-118.272 43.008-138.24 96.256l-117.76 313.344v102.4c0 56.554 45.846 102.4 102.4 102.4v0h358.4v307.2c0 56.554 45.846 102.4 102.4 102.4v0zM870.4 460.8h153.6v-512h-153.6v512z" />
<glyph unicode="&#xf000;" glyph-name="glass" d="M970.857 831.771c0-16.571-13.143-33.143-24.571-44.571l-361.143-361.143v-438.857h182.857c20 0 36.571-16.571 36.571-36.571s-16.571-36.571-36.571-36.571h-512c-20 0-36.571 16.571-36.571 36.571s16.571 36.571 36.571 36.571h182.857v438.857l-361.143 361.143c-11.429 11.429-24.571 28-24.571 44.571 0 28 35.429 33.143 56.571 33.143h804.571c21.143 0 56.571-5.143 56.571-33.143z" />
<glyph unicode="&#xf001;" glyph-name="music" horiz-adv-x="878" d="M877.714 810.057v-640c0-80.571-120.571-109.714-182.857-109.714s-182.857 29.143-182.857 109.714 120.571 109.714 182.857 109.714c37.714 0 75.429-6.857 109.714-22.286v306.857l-438.857-135.429v-405.143c0-80.571-120.571-109.714-182.857-109.714s-182.857 29.143-182.857 109.714 120.571 109.714 182.857 109.714c37.714 0 75.429-6.857 109.714-22.286v552.571c0 24 16 45.143 38.857 52.571l475.429 146.286c5.143 1.714 10.286 2.286 16 2.286 30.286 0 54.857-24.571 54.857-54.857z" />
<glyph unicode="&#xf002;" glyph-name="search" horiz-adv-x="951" d="M658.286 462.628c0 141.143-114.857 256-256 256s-256-114.857-256-256 114.857-256 256-256 256 114.857 256 256zM950.857-12.8c0-40-33.143-73.143-73.143-73.143-19.429 0-38.286 8-51.429 21.714l-196 195.429c-66.857-46.286-146.857-70.857-228-70.857-222.286 0-402.286 180-402.286 402.286s180 402.286 402.286 402.286 402.286-180 402.286-402.286c0-81.143-24.571-161.143-70.857-228l196-196c13.143-13.143 21.143-32 21.143-51.429z" />
<glyph unicode="&#xf003;" glyph-name="envelope-o" d="M950.857 78.628v438.857c-12-13.714-25.143-26.286-39.429-37.714-81.714-62.857-164-126.857-243.429-193.143-42.857-36-96-80-155.429-80h-1.143c-59.429 0-112.571 44-155.429 80-79.429 66.286-161.714 130.286-243.429 193.143-14.286 11.429-27.429 24-39.429 37.714v-438.857c0-9.714 8.571-18.286 18.286-18.286h841.143c9.714 0 18.286 8.571 18.286 18.286zM950.857 679.2c0 14.286 3.429 39.429-18.286 39.429h-841.143c-9.714 0-18.286-8.571-18.286-18.286 0-65.143 32.571-121.714 84-162.286 76.571-60 153.143-120.571 229.143-181.143 30.286-24.571 85.143-77.143 125.143-77.143h1.143c40 0 94.857 52.571 125.143 77.143 76 60.571 152.571 121.143 229.143 181.143 37.143 29.143 84 92.571 84 141.143zM1024 700.343v-621.714c0-50.286-41.143-91.429-91.429-91.429h-841.143c-50.286 0-91.429 41.143-91.429 91.429v621.714c0 50.286 41.143 91.429 91.429 91.429h841.143c50.286 0 91.429-41.143 91.429-91.429z" />
<glyph unicode="&#xf004;" glyph-name="heart" d="M512-12.8c-9.143 0-18.286 3.429-25.143 10.286l-356.571 344c-4.571 4-130.286 118.857-130.286 256 0 167.429 102.286 267.429 273.143 267.429 100 0 193.714-78.857 238.857-123.429 45.143 44.571 138.857 123.429 238.857 123.429 170.857 0 273.143-100 273.143-267.429 0-137.143-125.714-252-130.857-257.143l-356-342.857c-6.857-6.857-16-10.286-25.143-10.286z" />
<glyph unicode="&#xf005;" glyph-name="star" horiz-adv-x="951" d="M950.857 568.343c0-10.286-7.429-20-14.857-27.429l-207.429-202.286 49.143-285.714c0.571-4 0.571-7.429 0.571-11.429 0-14.857-6.857-28.571-23.429-28.571-8 0-16 2.857-22.857 6.857l-256.571 134.857-256.571-134.857c-7.429-4-14.857-6.857-22.857-6.857-16.571 0-24 13.714-24 28.571 0 4 0.571 7.429 1.143 11.429l49.143 285.714-208 202.286c-6.857 7.429-14.286 17.143-14.286 27.429 0 17.143 17.714 24 32 26.286l286.857 41.714 128.571 260c5.143 10.857 14.857 23.429 28 23.429s22.857-12.571 28-23.429l128.571-260 286.857-41.714c13.714-2.286 32-9.143 32-26.286z" />
<glyph unicode="&#xf006;" glyph-name="star-o" horiz-adv-x="951" d="M649.714 364.343l174.857 169.714-241.143 35.429-108 218.286-108-218.286-241.143-35.429 174.857-169.714-41.714-240.571 216 113.714 215.429-113.714zM950.857 568.343c0-10.286-7.429-20-14.857-27.429l-207.429-202.286 49.143-285.714c0.571-4 0.571-7.429 0.571-11.429 0-15.429-6.857-28.571-23.429-28.571-8 0-16 2.857-22.857 6.857l-256.571 134.857-256.571-134.857c-7.429-4-14.857-6.857-22.857-6.857-16.571 0-24 13.714-24 28.571 0 4 0.571 7.429 1.143 11.429l49.143 285.714-208 202.286c-6.857 7.429-14.286 17.143-14.286 27.429 0 17.143 17.714 24 32 26.286l286.857 41.714 128.571 260c5.143 10.857 14.857 23.429 28 23.429s22.857-12.571 28-23.429l128.571-260 286.857-41.714c13.714-2.286 32-9.143 32-26.286z" />
<glyph unicode="&#xf007;" glyph-name="user" horiz-adv-x="731" d="M731.429 138.628c0-83.429-54.857-151.429-121.714-151.429h-488c-66.857 0-121.714 68-121.714 151.429 0 150.286 37.143 324 186.857 324 46.286-45.143 109.143-73.143 178.857-73.143s132.571 28 178.857 73.143c149.714 0 186.857-173.714 186.857-324zM585.143 645.486c0-121.143-98.286-219.429-219.429-219.429s-219.429 98.286-219.429 219.429 98.286 219.429 219.429 219.429 219.429-98.286 219.429-219.429z" />
<glyph unicode="&#xf008;" glyph-name="film" horiz-adv-x="1097" d="M219.429 23.771v73.143c0 20-16.571 36.571-36.571 36.571h-73.143c-20 0-36.571-16.571-36.571-36.571v-73.143c0-20 16.571-36.571 36.571-36.571h73.143c20 0 36.571 16.571 36.571 36.571zM219.429 243.2v73.143c0 20-16.571 36.571-36.571 36.571h-73.143c-20 0-36.571-16.571-36.571-36.571v-73.143c0-20 16.571-36.571 36.571-36.571h73.143c20 0 36.571 16.571 36.571 36.571zM219.429 462.628v73.143c0 20-16.571 36.571-36.571 36.571h-73.143c-20 0-36.571-16.571-36.571-36.571v-73.143c0-20 16.571-36.571 36.571-36.571h73.143c20 0 36.571 16.571 36.571 36.571zM804.571 23.771v292.571c0 20-16.571 36.571-36.571 36.571h-438.857c-20 0-36.571-16.571-36.571-36.571v-292.571c0-20 16.571-36.571 36.571-36.571h438.857c20 0 36.571 16.571 36.571 36.571zM219.429 682.057v73.143c0 20-16.571 36.571-36.571 36.571h-73.143c-20 0-36.571-16.571-36.571-36.571v-73.143c0-20 16.571-36.571 36.571-36.571h73.143c20 0 36.571 16.571 36.571 36.571zM1024 23.771v73.143c0 20-16.571 36.571-36.571 36.571h-73.143c-20 0-36.571-16.571-36.571-36.571v-73.143c0-20 16.571-36.571 36.571-36.571h73.143c20 0 36.571 16.571 36.571 36.571zM804.571 462.628v292.571c0 20-16.571 36.571-36.571 36.571h-438.857c-20 0-36.571-16.571-36.571-36.571v-292.571c0-20 16.571-36.571 36.571-36.571h438.857c20 0 36.571 16.571 36.571 36.571zM1024 243.2v73.143c0 20-16.571 36.571-36.571 36.571h-73.143c-20 0-36.571-16.571-36.571-36.571v-73.143c0-20 16.571-36.571 36.571-36.571h73.143c20 0 36.571 16.571 36.571 36.571zM1024 462.628v73.143c0 20-16.571 36.571-36.571 36.571h-73.143c-20 0-36.571-16.571-36.571-36.571v-73.143c0-20 16.571-36.571 36.571-36.571h73.143c20 0 36.571 16.571 36.571 36.571zM1024 682.057v73.143c0 20-16.571 36.571-36.571 36.571h-73.143c-20 0-36.571-16.571-36.571-36.571v-73.143c0-20 16.571-36.571 36.571-36.571h73.143c20 0 36.571 16.571 36.571 36.571zM1097.143 773.486v-768c0-50.286-41.143-91.429-91.429-91.429h-914.286c-50.286 0-91.429 41.143-91.429 91.429v768c0 50.286 41.143 91.429 91.429 91.429h914.286c50.286 0 91.429-41.143 91.429-91.429z" />
<glyph unicode="&#xf009;" glyph-name="th-large" horiz-adv-x="951" d="M438.857 352.914v-219.429c0-40-33.143-73.143-73.143-73.143h-292.571c-40 0-73.143 33.143-73.143 73.143v219.429c0 40 33.143 73.143 73.143 73.143h292.571c40 0 73.143-33.143 73.143-73.143zM438.857 791.771v-219.429c0-40-33.143-73.143-73.143-73.143h-292.571c-40 0-73.143 33.143-73.143 73.143v219.429c0 40 33.143 73.143 73.143 73.143h292.571c40 0 73.143-33.143 73.143-73.143zM950.857 352.914v-219.429c0-40-33.143-73.143-73.143-73.143h-292.571c-40 0-73.143 33.143-73.143 73.143v219.429c0 40 33.143 73.143 73.143 73.143h292.571c40 0 73.143-33.143 73.143-73.143zM950.857 791.771v-219.429c0-40-33.143-73.143-73.143-73.143h-292.571c-40 0-73.143 33.143-73.143 73.143v219.429c0 40 33.143 73.143 73.143 73.143h292.571c40 0 73.143-33.143 73.143-73.143z" />
<glyph unicode="&#xf00a;" glyph-name="th" d="M292.571 224.914v-109.714c0-30.286-24.571-54.857-54.857-54.857h-182.857c-30.286 0-54.857 24.571-54.857 54.857v109.714c0 30.286 24.571 54.857 54.857 54.857h182.857c30.286 0 54.857-24.571 54.857-54.857zM292.571 517.486v-109.714c0-30.286-24.571-54.857-54.857-54.857h-182.857c-30.286 0-54.857 24.571-54.857 54.857v109.714c0 30.286 24.571 54.857 54.857 54.857h182.857c30.286 0 54.857-24.571 54.857-54.857zM658.286 224.914v-109.714c0-30.286-24.571-54.857-54.857-54.857h-182.857c-30.286 0-54.857 24.571-54.857 54.857v109.714c0 30.286 24.571 54.857 54.857 54.857h182.857c30.286 0 54.857-24.571 54.857-54.857zM292.571 810.057v-109.714c0-30.286-24.571-54.857-54.857-54.857h-182.857c-30.286 0-54.857 24.571-54.857 54.857v109.714c0 30.286 24.571 54.857 54.857 54.857h182.857c30.286 0 54.857-24.571 54.857-54.857zM658.286 517.486v-109.714c0-30.286-24.571-54.857-54.857-54.857h-182.857c-30.286 0-54.857 24.571-54.857 54.857v109.714c0 30.286 24.571 54.857 54.857 54.857h182.857c30.286 0 54.857-24.571 54.857-54.857zM1024 224.914v-109.714c0-30.286-24.571-54.857-54.857-54.857h-182.857c-30.286 0-54.857 24.571-54.857 54.857v109.714c0 30.286 24.571 54.857 54.857 54.857h182.857c30.286 0 54.857-24.571 54.857-54.857zM658.286 810.057v-109.714c0-30.286-24.571-54.857-54.857-54.857h-182.857c-30.286 0-54.857 24.571-54.857 54.857v109.714c0 30.286 24.571 54.857 54.857 54.857h182.857c30.286 0 54.857-24.571 54.857-54.857zM1024 517.486v-109.714c0-30.286-24.571-54.857-54.857-54.857h-182.857c-30.286 0-54.857 24.571-54.857 54.857v109.714c0 30.286 24.571 54.857 54.857 54.857h182.857c30.286 0 54.857-24.571 54.857-54.857zM1024 810.057v-109.714c0-30.286-24.571-54.857-54.857-54.857h-182.857c-30.286 0-54.857 24.571-54.857 54.857v109.714c0 30.286 24.571 54.857 54.857 54.857h182.857c30.286 0 54.857-24.571 54.857-54.857z" />
<glyph unicode="&#xf00b;" glyph-name="th-list" d="M292.571 224.914v-109.714c0-30.286-24.571-54.857-54.857-54.857h-182.857c-30.286 0-54.857 24.571-54.857 54.857v109.714c0 30.286 24.571 54.857 54.857 54.857h182.857c30.286 0 54.857-24.571 54.857-54.857zM292.571 517.486v-109.714c0-30.286-24.571-54.857-54.857-54.857h-182.857c-30.286 0-54.857 24.571-54.857 54.857v109.714c0 30.286 24.571 54.857 54.857 54.857h182.857c30.286 0 54.857-24.571 54.857-54.857zM1024 224.914v-109.714c0-30.286-24.571-54.857-54.857-54.857h-548.571c-30.286 0-54.857 24.571-54.857 54.857v109.714c0 30.286 24.571 54.857 54.857 54.857h548.571c30.286 0 54.857-24.571 54.857-54.857zM292.571 810.057v-109.714c0-30.286-24.571-54.857-54.857-54.857h-182.857c-30.286 0-54.857 24.571-54.857 54.857v109.714c0 30.286 24.571 54.857 54.857 54.857h182.857c30.286 0 54.857-24.571 54.857-54.857zM1024 517.486v-109.714c0-30.286-24.571-54.857-54.857-54.857h-548.571c-30.286 0-54.857 24.571-54.857 54.857v109.714c0 30.286 24.571 54.857 54.857 54.857h548.571c30.286 0 54.857-24.571 54.857-54.857zM1024 810.057v-109.714c0-30.286-24.571-54.857-54.857-54.857h-548.571c-30.286 0-54.857 24.571-54.857 54.857v109.714c0 30.286 24.571 54.857 54.857 54.857h548.571c30.286 0 54.857-24.571 54.857-54.857z" />
<glyph unicode="&#xf00c;" glyph-name="check" d="M954.857 614.628c0-14.286-5.714-28.571-16-38.857l-491.429-491.429c-10.286-10.286-24.571-16-38.857-16s-28.571 5.714-38.857 16l-284.571 284.571c-10.286 10.286-16 24.571-16 38.857s5.714 28.571 16 38.857l77.714 77.714c10.286 10.286 24.571 16 38.857 16s28.571-5.714 38.857-16l168-168.571 374.857 375.429c10.286 10.286 24.571 16 38.857 16s28.571-5.714 38.857-16l77.714-77.714c10.286-10.286 16-24.571 16-38.857z" />
<glyph unicode="&#xf00d;" glyph-name="close, times" horiz-adv-x="805" d="M741.714 182.628c0-14.286-5.714-28.571-16-38.857l-77.714-77.714c-10.286-10.286-24.571-16-38.857-16s-28.571 5.714-38.857 16l-168 168-168-168c-10.286-10.286-24.571-16-38.857-16s-28.571 5.714-38.857 16l-77.714 77.714c-10.286 10.286-16 24.571-16 38.857s5.714 28.571 16 38.857l168 168-168 168c-10.286 10.286-16 24.571-16 38.857s5.714 28.571 16 38.857l77.714 77.714c10.286 10.286 24.571 16 38.857 16s28.571-5.714 38.857-16l168-168 168 168c10.286 10.286 24.571 16 38.857 16s28.571-5.714 38.857-16l77.714-77.714c10.286-10.286 16-24.571 16-38.857s-5.714-28.571-16-38.857l-168-168 168-168c10.286-10.286 16-24.571 16-38.857z" />
<glyph unicode="&#xf00e;" glyph-name="search-plus" horiz-adv-x="951" d="M585.143 480.914v-36.571c0-9.714-8.571-18.286-18.286-18.286h-128v-128c0-9.714-8.571-18.286-18.286-18.286h-36.571c-9.714 0-18.286 8.571-18.286 18.286v128h-128c-9.714 0-18.286 8.571-18.286 18.286v36.571c0 9.714 8.571 18.286 18.286 18.286h128v128c0 9.714 8.571 18.286 18.286 18.286h36.571c9.714 0 18.286-8.571 18.286-18.286v-128h128c9.714 0 18.286-8.571 18.286-18.286zM658.286 462.628c0 141.143-114.857 256-256 256s-256-114.857-256-256 114.857-256 256-256 256 114.857 256 256zM950.857-12.8c0-40.571-32.571-73.143-73.143-73.143-19.429 0-38.286 8-51.429 21.714l-196 195.429c-66.857-46.286-146.857-70.857-228-70.857-222.286 0-402.286 180-402.286 402.286s180 402.286 402.286 402.286 402.286-180 402.286-402.286c0-81.143-24.571-161.143-70.857-228l196-196c13.143-13.143 21.143-32 21.143-51.429z" />
<glyph unicode="&#xf010;" glyph-name="search-minus" horiz-adv-x="951" d="M585.143 480.914v-36.571c0-9.714-8.571-18.286-18.286-18.286h-329.143c-9.714 0-18.286 8.571-18.286 18.286v36.571c0 9.714 8.571 18.286 18.286 18.286h329.143c9.714 0 18.286-8.571 18.286-18.286zM658.286 462.628c0 141.143-114.857 256-256 256s-256-114.857-256-256 114.857-256 256-256 256 114.857 256 256zM950.857-12.8c0-40.571-32.571-73.143-73.143-73.143-19.429 0-38.286 8-51.429 21.714l-196 195.429c-66.857-46.286-146.857-70.857-228-70.857-222.286 0-402.286 180-402.286 402.286s180 402.286 402.286 402.286 402.286-180 402.286-402.286c0-81.143-24.571-161.143-70.857-228l196-196c13.143-13.143 21.143-32 21.143-51.429z" />
<glyph unicode="&#xf011;" glyph-name="power-off" horiz-adv-x="878" d="M877.714 426.057c0-241.714-197.143-438.857-438.857-438.857s-438.857 197.143-438.857 438.857c0 138.857 64 266.857 175.429 350.286 32.571 24.571 78.286 18.286 102.286-14.286 24.571-32 17.714-78.286-14.286-102.286-74.286-56-117.143-141.143-117.143-233.714 0-161.143 131.429-292.571 292.571-292.571s292.571 131.429 292.571 292.571c0 92.571-42.857 177.714-117.143 233.714-32 24-38.857 70.286-14.286 102.286 24 32.571 70.286 38.857 102.286 14.286 111.429-83.429 175.429-211.429 175.429-350.286zM512 864.914v-365.714c0-40-33.143-73.143-73.143-73.143s-73.143 33.143-73.143 73.143v365.714c0 40 33.143 73.143 73.143 73.143s73.143-33.143 73.143-73.143z" />
<glyph unicode="&#xf012;" glyph-name="signal" d="M146.286 115.2v-109.714c0-10.286-8-18.286-18.286-18.286h-109.714c-10.286 0-18.286 8-18.286 18.286v109.714c0 10.286 8 18.286 18.286 18.286h109.714c10.286 0 18.286-8 18.286-18.286zM365.714 188.343v-182.857c0-10.286-8-18.286-18.286-18.286h-109.714c-10.286 0-18.286 8-18.286 18.286v182.857c0 10.286 8 18.286 18.286 18.286h109.714c10.286 0 18.286-8 18.286-18.286zM585.143 334.628v-329.143c0-10.286-8-18.286-18.286-18.286h-109.714c-10.286 0-18.286 8-18.286 18.286v329.143c0 10.286 8 18.286 18.286 18.286h109.714c10.286 0 18.286-8 18.286-18.286zM804.571 554.057v-548.571c0-10.286-8-18.286-18.286-18.286h-109.714c-10.286 0-18.286 8-18.286 18.286v548.571c0 10.286 8 18.286 18.286 18.286h109.714c10.286 0 18.286-8 18.286-18.286zM1024 846.628v-841.143c0-10.286-8-18.286-18.286-18.286h-109.714c-10.286 0-18.286 8-18.286 18.286v841.143c0 10.286 8 18.286 18.286 18.286h109.714c10.286 0 18.286-8 18.286-18.286z" />
<glyph unicode="&#xf013;" glyph-name="cog, gear" horiz-adv-x="878" d="M585.143 426.057c0 80.571-65.714 146.286-146.286 146.286s-146.286-65.714-146.286-146.286 65.714-146.286 146.286-146.286 146.286 65.714 146.286 146.286zM877.714 488.343v-126.857c0-8.571-6.857-18.857-16-20.571l-105.714-16c-6.286-18.286-13.143-35.429-22.286-52 19.429-28 40-53.143 61.143-78.857 3.429-4 5.714-9.143 5.714-14.286s-1.714-9.143-5.143-13.143c-13.714-18.286-90.857-102.286-110.286-102.286-5.143 0-10.286 2.286-14.857 5.143l-78.857 61.714c-16.571-8.571-34.286-16-52-21.714-4-34.857-7.429-72-16.571-106.286-2.286-9.143-10.286-16-20.571-16h-126.857c-10.286 0-19.429 7.429-20.571 17.143l-16 105.143c-17.714 5.714-34.857 12.571-51.429 21.143l-80.571-61.143c-4-3.429-9.143-5.143-14.286-5.143s-10.286 2.286-14.286 6.286c-30.286 27.429-70.286 62.857-94.286 96-2.857 4-4 8.571-4 13.143 0 5.143 1.714 9.143 4.571 13.143 19.429 26.286 40.571 51.429 60 78.286-9.714 18.286-17.714 37.143-23.429 56.571l-104.571 15.429c-9.714 1.714-16.571 10.857-16.571 20.571v126.857c0 8.571 6.857 18.857 15.429 20.571l106.286 16c5.714 18.286 13.143 35.429 22.286 52.571-19.429 27.429-40 53.143-61.143 78.857-3.429 4-5.714 8.571-5.714 13.714s2.286 9.143 5.143 13.143c13.714 18.857 90.857 102.286 110.286 102.286 5.143 0 10.286-2.286 14.857-5.714l78.857-61.143c16.571 8.571 34.286 16 52 21.714 4 34.857 7.429 72 16.571 106.286 2.286 9.143 10.286 16 20.571 16h126.857c10.286 0 19.429-7.429 20.571-17.143l16-105.143c17.714-5.714 34.857-12.571 51.429-21.143l81.143 61.143c3.429 3.429 8.571 5.143 13.714 5.143s10.286-2.286 14.286-5.714c30.286-28 70.286-63.429 94.286-97.143 2.857-3.429 4-8 4-12.571 0-5.143-1.714-9.143-4.571-13.143-19.429-26.286-40.571-51.429-60-78.286 9.714-18.286 17.714-37.143 23.429-56l104.571-16c9.714-1.714 16.571-10.857 16.571-20.571z" />
<glyph unicode="&#xf014;" glyph-name="trash-o" horiz-adv-x="805" d="M292.571 517.486v-329.143c0-10.286-8-18.286-18.286-18.286h-36.571c-10.286 0-18.286 8-18.286 18.286v329.143c0 10.286 8 18.286 18.286 18.286h36.571c10.286 0 18.286-8 18.286-18.286zM438.857 517.486v-329.143c0-10.286-8-18.286-18.286-18.286h-36.571c-10.286 0-18.286 8-18.286 18.286v329.143c0 10.286 8 18.286 18.286 18.286h36.571c10.286 0 18.286-8 18.286-18.286zM585.143 517.486v-329.143c0-10.286-8-18.286-18.286-18.286h-36.571c-10.286 0-18.286 8-18.286 18.286v329.143c0 10.286 8 18.286 18.286 18.286h36.571c10.286 0 18.286-8 18.286-18.286zM658.286 103.771v541.714h-512v-541.714c0-27.429 15.429-43.429 18.286-43.429h475.429c2.857 0 18.286 16 18.286 43.429zM274.286 718.628h256l-27.429 66.857c-1.714 2.286-6.857 5.714-9.714 6.286h-181.143c-3.429-0.571-8-4-9.714-6.286zM804.571 700.343v-36.571c0-10.286-8-18.286-18.286-18.286h-54.857v-541.714c0-62.857-41.143-116.571-91.429-116.571h-475.429c-50.286 0-91.429 51.429-91.429 114.286v544h-54.857c-10.286 0-18.286 8-18.286 18.286v36.571c0 10.286 8 18.286 18.286 18.286h176.571l40 95.429c11.429 28 45.714 50.857 76 50.857h182.857c30.286 0 64.571-22.857 76-50.857l40-95.429h176.571c10.286 0 18.286-8 18.286-18.286z" />
<glyph unicode="&#xf015;" glyph-name="home" horiz-adv-x="951" d="M804.571 371.2v-274.286c0-20-16.571-36.571-36.571-36.571h-219.429v219.429h-146.286v-219.429h-219.429c-20 0-36.571 16.571-36.571 36.571v274.286c0 1.143 0.571 2.286 0.571 3.429l328.571 270.857 328.571-270.857c0.571-1.143 0.571-2.286 0.571-3.429zM932 410.628l-35.429-42.286c-2.857-3.429-7.429-5.714-12-6.286h-1.714c-4.571 0-8.571 1.143-12 4l-395.429 329.714-395.429-329.714c-4-2.857-8.571-4.571-13.714-4-4.571 0.571-9.143 2.857-12 6.286l-35.429 42.286c-6.286 7.429-5.143 19.429 2.286 25.714l410.857 342.286c24 20 62.857 20 86.857 0l139.429-116.571v111.429c0 10.286 8 18.286 18.286 18.286h109.714c10.286 0 18.286-8 18.286-18.286v-233.143l125.143-104c7.429-6.286 8.571-18.286 2.286-25.714z" />
<glyph unicode="&#xf016;" glyph-name="file-o" horiz-adv-x="878" d="M838.857 720.914c21.143-21.143 38.857-63.429 38.857-93.714v-658.286c0-30.286-24.571-54.857-54.857-54.857h-768c-30.286 0-54.857 24.571-54.857 54.857v914.286c0 30.286 24.571 54.857 54.857 54.857h512c30.286 0 72.571-17.714 93.714-38.857zM585.143 860.343v-214.857h214.857c-3.429 9.714-8.571 19.429-12.571 23.429l-178.857 178.857c-4 4-13.714 9.143-23.429 12.571zM804.571-12.8v585.143h-237.714c-30.286 0-54.857 24.571-54.857 54.857v237.714h-438.857v-877.714h731.429z" />
<glyph unicode="&#xf017;" glyph-name="clock-o" horiz-adv-x="878" d="M512 627.2v-256c0-10.286-8-18.286-18.286-18.286h-182.857c-10.286 0-18.286 8-18.286 18.286v36.571c0 10.286 8 18.286 18.286 18.286h128v201.143c0 10.286 8 18.286 18.286 18.286h36.571c10.286 0 18.286-8 18.286-18.286zM749.714 426.057c0 171.429-139.429 310.857-310.857 310.857s-310.857-139.429-310.857-310.857 139.429-310.857 310.857-310.857 310.857 139.429 310.857 310.857zM877.714 426.057c0-242.286-196.571-438.857-438.857-438.857s-438.857 196.571-438.857 438.857 196.571 438.857 438.857 438.857 438.857-196.571 438.857-438.857z" />
<glyph unicode="&#xf018;" glyph-name="road" horiz-adv-x="1097" d="M634.857 368.914v2.286l-13.714 182.857c-0.571 10.286-9.714 18.286-19.429 18.286h-106.286c-9.714 0-18.857-8-19.429-18.286l-13.714-182.857v-2.286c-0.571-9.143 8-16 16.571-16h139.429c8.571 0 17.143 6.857 16.571 16zM1068.571 102.057c0-16.571-4.571-41.714-26.286-41.714h-402.286c9.714 0 17.714 8 17.143 18.286l-11.429 146.286c-0.571 10.286-9.714 18.286-19.429 18.286h-155.429c-9.714 0-18.857-8-19.429-18.286l-11.429-146.286c-0.571-10.286 7.429-18.286 17.143-18.286h-402.286c-21.714 0-26.286 25.143-26.286 41.714 0 22.857 6.286 45.714 14.857 66.286l238.286 596.571c5.714 14.286 21.143 26.857 36.571 26.857h193.714c-9.714 0-18.857-8-19.429-18.286l-8.571-109.714c-0.571-10.286 6.857-18.286 17.143-18.286h94.857c10.286 0 17.714 8 17.143 18.286l-8.571 109.714c-0.571 10.286-9.714 18.286-19.429 18.286h193.714c15.429 0 30.857-12.571 36.571-26.857l238.286-596.571c8.571-20.571 14.857-43.429 14.857-66.286z" />
<glyph unicode="&#xf019;" glyph-name="download" horiz-adv-x="951" d="M731.429 170.057c0 20-16.571 36.571-36.571 36.571s-36.571-16.571-36.571-36.571 16.571-36.571 36.571-36.571 36.571 16.571 36.571 36.571zM877.714 170.057c0 20-16.571 36.571-36.571 36.571s-36.571-16.571-36.571-36.571 16.571-36.571 36.571-36.571 36.571 16.571 36.571 36.571zM950.857 298.057v-182.857c0-30.286-24.571-54.857-54.857-54.857h-841.143c-30.286 0-54.857 24.571-54.857 54.857v182.857c0 30.286 24.571 54.857 54.857 54.857h265.714l77.143-77.714c21.143-20.571 48.571-32 77.714-32s56.571 11.429 77.714 32l77.714 77.714h265.143c30.286 0 54.857-24.571 54.857-54.857zM765.143 623.2c5.714-13.714 2.857-29.714-8-40l-256-256c-6.857-7.429-16.571-10.857-25.714-10.857s-18.857 3.429-25.714 10.857l-256 256c-10.857 10.286-13.714 26.286-8 40 5.714 13.143 18.857 22.286 33.714 22.286h146.286v256c0 20 16.571 36.571 36.571 36.571h146.286c20 0 36.571-16.571 36.571-36.571v-256h146.286c14.857 0 28-9.143 33.714-22.286z" />
<glyph unicode="&#xf01a;" glyph-name="arrow-circle-o-down" horiz-adv-x="878" d="M640 407.771c0-5.143-2.286-9.714-5.714-13.714l-182.286-182.286c-4-3.429-8.571-5.143-13.143-5.143s-9.143 1.714-13.143 5.143l-182.857 182.857c-5.143 5.714-6.857 13.143-4 20s9.714 11.429 17.143 11.429h109.714v201.143c0 10.286 8 18.286 18.286 18.286h109.714c10.286 0 18.286-8 18.286-18.286v-201.143h109.714c10.286 0 18.286-8 18.286-18.286zM438.857 736.914c-171.429 0-310.857-139.429-310.857-310.857s139.429-310.857 310.857-310.857 310.857 139.429 310.857 310.857-139.429 310.857-310.857 310.857zM877.714 426.057c0-242.286-196.571-438.857-438.857-438.857s-438.857 196.571-438.857 438.857 196.571 438.857 438.857 438.857v0c242.286 0 438.857-196.571 438.857-438.857z" />
<glyph unicode="&#xf01b;" glyph-name="arrow-circle-o-up" horiz-adv-x="878" d="M638.857 437.486c-2.857-6.857-9.714-11.429-17.143-11.429h-109.714v-201.143c0-10.286-8-18.286-18.286-18.286h-109.714c-10.286 0-18.286 8-18.286 18.286v201.143h-109.714c-10.286 0-18.286 8-18.286 18.286 0 5.143 2.286 9.714 5.714 13.714l182.286 182.286c4 3.429 8.571 5.143 13.143 5.143s9.143-1.714 13.143-5.143l182.857-182.857c5.143-5.714 6.857-13.143 4-20zM438.857 736.914c-171.429 0-310.857-139.429-310.857-310.857s139.429-310.857 310.857-310.857 310.857 139.429 310.857 310.857-139.429 310.857-310.857 310.857zM877.714 426.057c0-242.286-196.571-438.857-438.857-438.857s-438.857 196.571-438.857 438.857 196.571 438.857 438.857 438.857v0c242.286 0 438.857-196.571 438.857-438.857z" />
<glyph unicode="&#xf01c;" glyph-name="inbox" horiz-adv-x="878" d="M584.571 389.486h180.571c-1.143 2.857-1.714 6.286-2.857 9.143l-121.143 283.429h-404.571l-121.143-283.429c-1.143-2.857-1.714-6.286-2.857-9.143h180.571l54.286-109.714h182.857zM877.714 372.343v-275.429c0-20-16.571-36.571-36.571-36.571h-804.571c-20 0-36.571 16.571-36.571 36.571v275.429c0 20.571 6.286 50.857 14.286 70.286l136 315.429c8 18.857 30.857 33.714 50.857 33.714h475.429c20 0 42.857-14.857 50.857-33.714l136-315.429c8-19.429 14.286-49.714 14.286-70.286z" />
<glyph unicode="&#xf01d;" glyph-name="play-circle-o" horiz-adv-x="878" d="M676.571 426.057c0-13.143-6.857-25.143-18.286-31.429l-310.857-182.857c-5.714-3.429-12-5.143-18.286-5.143s-12.571 1.714-18.286 4.571c-11.429 6.857-18.286 18.857-18.286 32v365.714c0 13.143 6.857 25.143 18.286 32 11.429 6.286 25.714 6.286 36.571-0.571l310.857-182.857c11.429-6.286 18.286-18.286 18.286-31.429zM749.714 426.057c0 171.429-139.429 310.857-310.857 310.857s-310.857-139.429-310.857-310.857 139.429-310.857 310.857-310.857 310.857 139.429 310.857 310.857zM877.714 426.057c0-242.286-196.571-438.857-438.857-438.857s-438.857 196.571-438.857 438.857 196.571 438.857 438.857 438.857 438.857-196.571 438.857-438.857z" />
<glyph unicode="&#xf01e;" glyph-name="repeat" horiz-adv-x="878" d="M877.714 791.771v-256c0-20-16.571-36.571-36.571-36.571h-256c-14.857 0-28 9.143-33.714 22.857-5.714 13.143-2.857 29.143 8 39.429l78.857 78.857c-53.714 49.714-124.571 78.286-199.429 78.286-161.143 0-292.571-131.429-292.571-292.571s131.429-292.571 292.571-292.571c90.857 0 174.857 41.143 230.857 113.714 2.857 4 8 6.286 13.143 6.857 5.143 0 10.286-1.714 14.286-5.143l78.286-78.857c6.857-6.286 6.857-17.143 1.143-24.571-83.429-100.571-206.857-158.286-337.714-158.286-241.714 0-438.857 197.143-438.857 438.857s197.143 438.857 438.857 438.857c112.571 0 221.714-45.143 302.286-121.143l74.286 73.714c10.286 10.857 26.286 13.714 40 8 13.143-5.714 22.286-18.857 22.286-33.714z" />
<glyph unicode="&#xf021;" glyph-name="refresh" horiz-adv-x="878" d="M863.429 334.628c0-1.143 0-2.857-0.571-4-48.571-202.286-215.429-343.429-426.286-343.429-111.429 0-219.429 44-300.571 121.143l-73.714-73.714c-6.857-6.857-16-10.857-25.714-10.857-20 0-36.571 16.571-36.571 36.571v256c0 20 16.571 36.571 36.571 36.571h256c20 0 36.571-16.571 36.571-36.571 0-9.714-4-18.857-10.857-25.714l-78.286-78.286c53.714-50.286 125.143-78.857 198.857-78.857 101.714 0 196 52.571 249.143 139.429 13.714 22.286 20.571 44 30.286 66.857 2.857 8 8.571 13.143 17.143 13.143h109.714c10.286 0 18.286-8.571 18.286-18.286zM877.714 791.771v-256c0-20-16.571-36.571-36.571-36.571h-256c-20 0-36.571 16.571-36.571 36.571 0 9.714 4 18.857 10.857 25.714l78.857 78.857c-54.286 50.286-125.714 78.286-199.429 78.286-101.714 0-196-52.571-249.143-139.429-13.714-22.286-20.571-44-30.286-66.857-2.857-8-8.571-13.143-17.143-13.143h-113.714c-10.286 0-18.286 8.571-18.286 18.286v4c49.143 202.857 217.714 343.429 428.571 343.429 112 0 221.143-44.571 302.286-121.143l74.286 73.714c6.857 6.857 16 10.857 25.714 10.857 20 0 36.571-16.571 36.571-36.571z" />
<glyph unicode="&#xf022;" glyph-name="list-alt" d="M219.429 261.486v-36.571c0-9.714-8.571-18.286-18.286-18.286h-36.571c-9.714 0-18.286 8.571-18.286 18.286v36.571c0 9.714 8.571 18.286 18.286 18.286h36.571c9.714 0 18.286-8.571 18.286-18.286zM219.429 407.771v-36.571c0-9.714-8.571-18.286-18.286-18.286h-36.571c-9.714 0-18.286 8.571-18.286 18.286v36.571c0 9.714 8.571 18.286 18.286 18.286h36.571c9.714 0 18.286-8.571 18.286-18.286zM219.429 554.057v-36.571c0-9.714-8.571-18.286-18.286-18.286h-36.571c-9.714 0-18.286 8.571-18.286 18.286v36.571c0 9.714 8.571 18.286 18.286 18.286h36.571c9.714 0 18.286-8.571 18.286-18.286zM877.714 261.486v-36.571c0-9.714-8.571-18.286-18.286-18.286h-548.571c-9.714 0-18.286 8.571-18.286 18.286v36.571c0 9.714 8.571 18.286 18.286 18.286h548.571c9.714 0 18.286-8.571 18.286-18.286zM877.714 407.771v-36.571c0-9.714-8.571-18.286-18.286-18.286h-548.571c-9.714 0-18.286 8.571-18.286 18.286v36.571c0 9.714 8.571 18.286 18.286 18.286h548.571c9.714 0 18.286-8.571 18.286-18.286zM877.714 554.057v-36.571c0-9.714-8.571-18.286-18.286-18.286h-548.571c-9.714 0-18.286 8.571-18.286 18.286v36.571c0 9.714 8.571 18.286 18.286 18.286h548.571c9.714 0 18.286-8.571 18.286-18.286zM950.857 151.771v475.429c0 9.714-8.571 18.286-18.286 18.286h-841.143c-9.714 0-18.286-8.571-18.286-18.286v-475.429c0-9.714 8.571-18.286 18.286-18.286h841.143c9.714 0 18.286 8.571 18.286 18.286zM1024 773.486v-621.714c0-50.286-41.143-91.429-91.429-91.429h-841.143c-50.286 0-91.429 41.143-91.429 91.429v621.714c0 50.286 41.143 91.429 91.429 91.429h841.143c50.286 0 91.429-41.143 91.429-91.429z" />
<glyph unicode="&#xf023;" glyph-name="lock" horiz-adv-x="658" d="M182.857 499.2h292.571v109.714c0 80.571-65.714 146.286-146.286 146.286s-146.286-65.714-146.286-146.286v-109.714zM658.286 444.343v-329.143c0-30.286-24.571-54.857-54.857-54.857h-548.571c-30.286 0-54.857 24.571-54.857 54.857v329.143c0 30.286 24.571 54.857 54.857 54.857h18.286v109.714c0 140.571 115.429 256 256 256s256-115.429 256-256v-109.714h18.286c30.286 0 54.857-24.571 54.857-54.857z" />
<glyph unicode="&#xf024;" glyph-name="flag" horiz-adv-x="1061" d="M182.857 791.771c0-26.286-14.286-49.714-36.571-62.857v-723.429c0-9.714-8.571-18.286-18.286-18.286h-36.571c-9.714 0-18.286 8.571-18.286 18.286v723.429c-22.286 13.143-36.571 36.571-36.571 62.857 0 40.571 32.571 73.143 73.143 73.143s73.143-32.571 73.143-73.143zM1024 755.2v-436c0-21.143-13.143-29.143-29.714-37.714-64.571-34.857-136-66.286-210.857-66.286-105.143 0-155.429 80-280 80-90.857 0-186.286-41.143-265.143-83.429-6.286-3.429-12-5.143-18.857-5.143-20 0-36.571 16.571-36.571 36.571v424c0 13.714 6.857 23.429 17.714 31.429 13.714 9.143 30.286 17.143 45.143 24.571 72 36.571 159.429 68.571 240.571 68.571 89.714 0 160-29.714 239.429-66.857 16-8 32.571-10.857 50.286-10.857 89.714 0 186.286 77.714 211.429 77.714 20 0 36.571-16.571 36.571-36.571z" />
<glyph unicode="&#xf025;" glyph-name="headphones" horiz-adv-x="951" d="M950.857 431.771c0-62.286-11.429-122.857-34.286-179.429l-11.429-28-105.714-18.857c-16.571-62.286-73.143-108.571-141.143-108.571v-18.286c0-10.286-8-18.286-18.286-18.286h-36.571c-10.286 0-18.286 8-18.286 18.286v329.143c0 10.286 8 18.286 18.286 18.286h36.571c10.286 0 18.286-8 18.286-18.286v-18.286c54.857 0 102.286-30.286 127.429-74.857l38.857 6.857c10.857 35.429 16.571 72 16.571 110.286 0 172.571-170.857 323.429-365.714 323.429s-365.714-150.857-365.714-323.429c0-38.286 5.714-74.857 16.571-110.286l38.857-6.857c25.143 44.571 72.571 74.857 127.429 74.857v18.286c0 10.286 8 18.286 18.286 18.286h36.571c10.286 0 18.286-8 18.286-18.286v-329.143c0-10.286-8-18.286-18.286-18.286h-36.571c-10.286 0-18.286 8-18.286 18.286v18.286c-68 0-124.571 46.286-141.143 108.571l-105.714 18.857-11.429 28c-22.857 56.571-34.286 117.143-34.286 179.429 0 234.857 217.714 433.143 475.429 433.143s475.429-198.286 475.429-433.143z" />
<glyph unicode="&#xf026;" glyph-name="volume-off" horiz-adv-x="439" d="M438.857 736.914v-621.714c0-20-16.571-36.571-36.571-36.571-9.714 0-18.857 4-25.714 10.857l-190.286 190.286h-149.714c-20 0-36.571 16.571-36.571 36.571v219.429c0 20 16.571 36.571 36.571 36.571h149.714l190.286 190.286c6.857 6.857 16 10.857 25.714 10.857 20 0 36.571-16.571 36.571-36.571z" />
<glyph unicode="&#xf027;" glyph-name="volume-down" horiz-adv-x="658" d="M438.857 736.914v-621.714c0-20-16.571-36.571-36.571-36.571-9.714 0-18.857 4-25.714 10.857l-190.286 190.286h-149.714c-20 0-36.571 16.571-36.571 36.571v219.429c0 20 16.571 36.571 36.571 36.571h149.714l190.286 190.286c6.857 6.857 16 10.857 25.714 10.857 20 0 36.571-16.571 36.571-36.571zM658.286 426.057c0-57.143-34.857-112.571-88.571-134.286-4.571-2.286-9.714-2.857-14.286-2.857-20 0-36.571 16-36.571 36.571 0 43.429 66.286 31.429 66.286 100.571s-66.286 57.143-66.286 100.571c0 20.571 16.571 36.571 36.571 36.571 4.571 0 9.714-0.571 14.286-2.857 53.714-21.143 88.571-77.143 88.571-134.286z" />
<glyph unicode="&#xf028;" glyph-name="volume-up" horiz-adv-x="951" d="M438.857 736.914v-621.714c0-20-16.571-36.571-36.571-36.571-9.714 0-18.857 4-25.714 10.857l-190.286 190.286h-149.714c-20 0-36.571 16.571-36.571 36.571v219.429c0 20 16.571 36.571 36.571 36.571h149.714l190.286 190.286c6.857 6.857 16 10.857 25.714 10.857 20 0 36.571-16.571 36.571-36.571zM658.286 426.057c0-57.143-34.857-112.571-88.571-134.286-4.571-2.286-9.714-2.857-14.286-2.857-20 0-36.571 16-36.571 36.571 0 43.429 66.286 31.429 66.286 100.571s-66.286 57.143-66.286 100.571c0 20.571 16.571 36.571 36.571 36.571 4.571 0 9.714-0.571 14.286-2.857 53.714-21.143 88.571-77.143 88.571-134.286zM804.571 426.057c0-116-69.714-224-177.143-269.143-4.571-1.714-9.714-2.857-14.286-2.857-20.571 0-37.143 16.571-37.143 36.571 0 16 9.143 26.857 22.286 33.714 15.429 8 29.714 14.857 43.429 25.143 56.571 41.143 89.714 106.857 89.714 176.571s-33.143 135.429-89.714 176.571c-13.714 10.286-28 17.143-43.429 25.143-13.143 6.857-22.286 17.714-22.286 33.714 0 20 16.571 36.571 36.571 36.571 5.143 0 10.286-1.143 14.857-2.857 107.429-45.143 177.143-153.143 177.143-269.143zM950.857 426.057c0-175.429-104.571-334.286-265.714-403.429-4.571-1.714-9.714-2.857-14.857-2.857-20 0-36.571 16.571-36.571 36.571 0 16.571 8.571 25.714 22.286 33.714 8 4.571 17.143 7.429 25.714 12 16 8.571 32 18.286 46.857 29.143 93.714 69.143 149.143 178.286 149.143 294.857s-55.429 225.714-149.143 294.857c-14.857 10.857-30.857 20.571-46.857 29.143-8.571 4.571-17.714 7.429-25.714 12-13.714 8-22.286 17.143-22.286 33.714 0 20 16.571 36.571 36.571 36.571 5.143 0 10.286-1.143 14.857-2.857 161.143-69.143 265.714-228 265.714-403.429z" />
<glyph unicode="&#xf029;" glyph-name="qrcode" horiz-adv-x="805" d="M219.429 279.771v-73.143h-73.143v73.143h73.143zM219.429 718.628v-73.143h-73.143v73.143h73.143zM658.286 718.628v-73.143h-73.143v73.143h73.143zM73.143 134.057h219.429v218.857h-219.429v-218.857zM73.143 572.343h219.429v219.429h-219.429v-219.429zM512 572.343h219.429v219.429h-219.429v-219.429zM365.714 426.057v-365.714h-365.714v365.714h365.714zM658.286 133.486v-73.143h-73.143v73.143h73.143zM804.571 133.486v-73.143h-73.143v73.143h73.143zM804.571 426.057v-219.429h-219.429v73.143h-73.143v-219.429h-73.143v365.714h219.429v-73.143h73.143v73.143h73.143zM365.714 864.914v-365.714h-365.714v365.714h365.714zM804.571 864.914v-365.714h-365.714v365.714h365.714z" />
<glyph unicode="&#xf02a;" glyph-name="barcode" d="M36 60.343h-36v804.571h36v-804.571zM72 60.914h-18.286v804h18.286v-804zM125.714 60.914h-17.714v804h17.714v-804zM215.429 60.914h-17.714v804h17.714v-804zM305.143 60.914h-35.429v804h35.429v-804zM377.143 60.914h-17.714v804h17.714v-804zM413.143 60.914h-17.714v804h17.714v-804zM449.143 60.914h-17.714v804h17.714v-804zM538.857 60.914h-36v804h36v-804zM628.571 60.914h-36v804h36v-804zM700.571 60.914h-36v804h36v-804zM772.571 60.914h-36v804h36v-804zM826.286 60.914h-36v804h36v-804zM934.286 60.914h-53.714v804h53.714v-804zM970.286 60.914h-18.286v804h18.286v-804zM1024 60.343h-36v804.571h36v-804.571z" />
<glyph unicode="&#xf02b;" glyph-name="tag" horiz-adv-x="866" d="M256 682.057c0 40.571-32.571 73.143-73.143 73.143s-73.143-32.571-73.143-73.143 32.571-73.143 73.143-73.143 73.143 32.571 73.143 73.143zM865.714 352.914c0-19.429-8-38.286-21.143-51.429l-280.571-281.143c-13.714-13.143-32.571-21.143-52-21.143s-38.286 8-51.429 21.143l-408.571 409.143c-29.143 28.571-52 84-52 124.571v237.714c0 40 33.143 73.143 73.143 73.143h237.714c40.571 0 96-22.857 125.143-52l408.571-408c13.143-13.714 21.143-32.571 21.143-52z" />
<glyph unicode="&#xf02c;" glyph-name="tags" horiz-adv-x="1085" d="M256 682.057c0 40.571-32.571 73.143-73.143 73.143s-73.143-32.571-73.143-73.143 32.571-73.143 73.143-73.143 73.143 32.571 73.143 73.143zM865.714 352.914c0-19.429-8-38.286-21.143-51.429l-280.571-281.143c-13.714-13.143-32.571-21.143-52-21.143s-38.286 8-51.429 21.143l-408.571 409.143c-29.143 28.571-52 84-52 124.571v237.714c0 40 33.143 73.143 73.143 73.143h237.714c40.571 0 96-22.857 125.143-52l408.571-408c13.143-13.714 21.143-32.571 21.143-52zM1085.143 352.914c0-19.429-8-38.286-21.143-51.429l-280.571-281.143c-13.714-13.143-32.571-21.143-52-21.143-29.714 0-44.571 13.714-64 33.714l268.571 268.571c13.143 13.143 21.143 32 21.143 51.429s-8 38.286-21.143 52l-408.571 408c-29.143 29.143-84.571 52-125.143 52h128c40.571 0 96-22.857 125.143-52l408.571-408c13.143-13.714 21.143-32.571 21.143-52z" />
<glyph unicode="&#xf02d;" glyph-name="book" horiz-adv-x="953" d="M936.571 664.914c14.286-20.571 18.286-47.429 10.286-73.714l-157.143-517.714c-14.286-48.571-64.571-86.286-113.714-86.286h-527.429c-58.286 0-120.571 46.286-141.714 105.714-9.143 25.714-9.143 50.857-1.143 72.571 1.143 11.429 3.429 22.857 4 36.571 0.571 9.143-4.571 16.571-3.429 23.429 2.286 13.714 14.286 23.429 23.429 38.857 17.143 28.571 36.571 74.857 42.857 104.571 2.857 10.857-2.857 23.429 0 33.143 2.857 10.857 13.714 18.857 19.429 29.143 15.429 26.286 35.429 77.143 38.286 104 1.143 12-4.571 25.143-1.143 34.286 4 13.143 16.571 18.857 25.143 30.286 13.714 18.857 36.571 73.143 40 103.429 1.143 9.714-4.571 19.429-2.857 29.714 2.286 10.857 16 22.286 25.143 35.429 24 35.429 28.571 113.714 101.143 93.143l-0.571-1.714c9.714 2.286 19.429 5.143 29.143 5.143h434.857c26.857 0 50.857-12 65.143-32 14.857-20.571 18.286-47.429 10.286-74.286l-156.571-517.714c-26.857-88-41.714-107.429-114.286-107.429h-496.571c-7.429 0-16.571-1.714-21.714-8.571-4.571-6.857-5.143-12-0.571-24.571 11.429-33.143 50.857-40 82.286-40h527.429c21.143 0 45.714 12 52 32.571l171.429 564c3.429 10.857 3.429 22.286 2.857 32.571 13.143-5.143 25.143-13.143 33.714-24.571zM328.571 663.771c-3.429-10.286 2.286-18.286 12.571-18.286h347.429c9.714 0 20.571 8 24 18.286l12 36.571c3.429 10.286-2.286 18.286-12.571 18.286h-347.429c-9.714 0-20.571-8-24-18.286zM281.143 517.486c-3.429-10.286 2.286-18.286 12.571-18.286h347.429c9.714 0 20.571 8 24 18.286l12 36.571c3.429 10.286-2.286 18.286-12.571 18.286h-347.429c-9.714 0-20.571-8-24-18.286z" />
<glyph unicode="&#xf02e;" glyph-name="bookmark" horiz-adv-x="731" d="M665.143 864.914c8.571 0 17.143-1.714 25.143-5.143 25.143-9.714 41.143-33.143 41.143-58.857v-736.571c0-25.714-16-49.143-41.143-58.857-8-3.429-16.571-4.571-25.143-4.571-17.714 0-34.286 6.286-47.429 18.286l-252 242.286-252-242.286c-13.143-12-29.714-18.857-47.429-18.857-8.571 0-17.143 1.714-25.143 5.143-25.143 9.714-41.143 33.143-41.143 58.857v736.571c0 25.714 16 49.143 41.143 58.857 8 3.429 16.571 5.143 25.143 5.143h598.857z" />
<glyph unicode="&#xf02f;" glyph-name="print" horiz-adv-x="951" d="M219.429 60.343h512v146.286h-512v-146.286zM219.429 426.057h512v219.429h-91.429c-30.286 0-54.857 24.571-54.857 54.857v91.429h-365.714v-365.714zM877.714 389.486c0 20-16.571 36.571-36.571 36.571s-36.571-16.571-36.571-36.571 16.571-36.571 36.571-36.571 36.571 16.571 36.571 36.571zM950.857 389.486v-237.714c0-9.714-8.571-18.286-18.286-18.286h-128v-91.429c0-30.286-24.571-54.857-54.857-54.857h-548.571c-30.286 0-54.857 24.571-54.857 54.857v91.429h-128c-9.714 0-18.286 8.571-18.286 18.286v237.714c0 60 49.714 109.714 109.714 109.714h36.571v310.857c0 30.286 24.571 54.857 54.857 54.857h384c30.286 0 72-17.143 93.714-38.857l86.857-86.857c21.714-21.714 38.857-63.429 38.857-93.714v-146.286h36.571c60 0 109.714-49.714 109.714-109.714z" />
<glyph unicode="&#xf030;" glyph-name="camera" horiz-adv-x="1097" d="M548.571 554.057c90.857 0 164.571-73.714 164.571-164.571s-73.714-164.571-164.571-164.571-164.571 73.714-164.571 164.571 73.714 164.571 164.571 164.571zM950.857 791.771c80.571 0 146.286-65.714 146.286-146.286v-512c0-80.571-65.714-146.286-146.286-146.286h-804.571c-80.571 0-146.286 65.714-146.286 146.286v512c0 80.571 65.714 146.286 146.286 146.286h128l29.143 77.714c14.286 37.714 58.857 68.571 98.857 68.571h292.571c40 0 84.571-30.857 98.857-68.571l29.143-77.714h128zM548.571 133.486c141.143 0 256 114.857 256 256s-114.857 256-256 256-256-114.857-256-256 114.857-256 256-256z" />
<glyph unicode="&#xf031;" glyph-name="font" horiz-adv-x="951" d="M414.286 618.628l-97.143-257.143c56.571-0.571 113.143-2.286 169.714-2.286 10.857 0 21.714 0.571 32.571 1.143-29.714 86.857-64.571 175.429-105.143 258.286zM0-12.8l1.143 45.143c53.714 16.571 112 5.143 136 66.857l135.429 352 160 413.714h73.143c2.286-4 4.571-8 6.286-12l117.143-274.286c42.857-101.143 82.286-203.429 125.714-304 25.714-59.429 45.714-120.571 74.286-178.857 4-9.143 12-26.286 20-32.571 18.857-14.857 71.429-18.286 98.286-28.571 1.714-10.857 3.429-21.714 3.429-32.571 0-5.143-0.571-9.714-0.571-14.857-72.571 0-145.143 9.143-217.714 9.143-74.857 0-149.714-6.286-224.571-8.571 0 14.857 0.571 29.714 2.286 44.571l74.857 16c15.429 3.429 45.714 7.429 45.714 28.571 0 20.571-73.714 190.286-82.857 213.714l-257.143 1.143c-14.857-33.143-72.571-182.857-72.571-204.571 0-44 84-45.714 116.571-50.286 0.571-10.857 0.571-21.714 0.571-33.143 0-5.143-0.571-10.286-1.143-15.429-66.286 0-133.143 11.429-199.429 11.429-8 0-19.429-3.429-27.429-4.571-36-6.286-71.429-8-107.429-8z" />
<glyph unicode="&#xf032;" glyph-name="bold" horiz-adv-x="805" d="M317.143 68.914c25.143-10.857 52.571-18.286 80-18.286 130.286 0 214.857 52 214.857 191.429 0 35.429-4.571 72.571-23.429 102.857-53.143 85.714-129.714 90.286-221.714 90.286-17.143 0-41.714 0-57.714-5.714 0-60.571-0.571-121.143-0.571-181.143 0-39.429-5.143-146.286 8.571-179.429zM309.143 495.2c20.571-3.429 41.714-4 62.286-4 117.714 0 201.714 33.143 201.714 165.143 0 111.429-98.857 149.714-194.286 149.714-25.143 0-49.714-3.429-74.286-7.429 0-57.714 4.571-115.429 4.571-173.143 0-30.286-0.571-60.571-0.571-90.857 0-13.143 0-26.286 0.571-39.429zM0-12.8l1.143 53.714c36.571 9.143 73.714 9.714 109.143 24.571 20 33.714 17.143 93.143 17.143 131.429 0 12.571 1.143 558.857-12.571 585.714-8.571 16.571-92.571 20.571-111.429 22.857l-2.286 47.429c136 2.286 272 12 407.429 12 25.714 0 52-0.571 77.714-0.571 129.143 0 271.429-61.714 271.429-210.286 0-102.286-77.714-140.571-158.286-177.143 108.571-24.571 205.143-98.286 205.143-218.286 0-196.571-178.857-261.714-346.286-261.714-50.286 0-100.571 3.429-150.857 3.429-102.286 0-205.714-9.143-307.429-13.143z" />
<glyph unicode="&#xf033;" glyph-name="italic" horiz-adv-x="585" d="M0-11.657l9.714 48.571c36.571 11.429 76 16 110.286 33.714 13.143 16.571 19.429 37.714 23.429 57.714 7.429 38.857 132 599.429 130.286 645.143v14.286c-31.429 17.143-69.714 12.571-104 18.286l10.857 58.857c73.714-3.429 148.571-9.143 222.857-9.143 60.571 0 121.143 5.714 181.714 9.143-2.286-17.143-6.286-34.286-10.857-50.857-39.429-13.714-81.143-20-120-35.429-12.571-30.857-15.429-64.571-21.143-97.143-27.429-148-64-296-94.286-442.857-5.714-27.429-33.714-141.143-31.429-165.143l0.571-10.286c34.857-8 70.286-12 105.714-17.714-1.143-18.857-4.571-37.714-9.143-56.571-12.571 0-24.571-1.714-37.143-1.714-32.571 0-66.286 10.857-98.857 11.429-39.429 0.571-78.857 1.143-117.714 1.143-50.857 0-100.571-8.571-150.857-11.429z" />
<glyph unicode="&#xf034;" glyph-name="text-height" horiz-adv-x="1030" d="M996.571 133.486c25.143 0 33.143-16 17.714-36l-72-92.571c-15.429-20-40.571-20-56 0l-72 92.571c-15.429 20-7.429 36 17.714 36h45.714v585.143h-45.714c-25.143 0-33.143 16-17.714 36l72 92.571c15.429 20 40.571 20 56 0l72-92.571c15.429-20 7.429-36-17.714-36h-45.714v-585.143h45.714zM46.286 864.343l30.857-15.429c4-1.714 108.571-2.857 120.571-2.857 50.286 0 100.571 2.286 150.857 2.286 41.143 0 81.714-0.571 122.857-0.571h167.429c22.857 0 36-5.143 51.429 16.571l24 0.571c5.143 0 10.857-0.571 16-0.571 1.143-64 1.143-128 1.143-192 0-20 0.571-42.286-2.857-62.286-12.571-4.571-25.714-8.571-38.857-10.286-13.143 22.857-22.286 48-30.857 73.143-4 11.429-17.714 88.571-18.857 89.714-12 14.857-25.143 12-42.857 12-52 0-106.286 2.286-157.714-4-2.857-25.143-5.143-52-4.571-77.714 0.571-160.571 2.286-321.143 2.286-481.714 0-44-6.857-90.286 5.714-132.571 43.429-22.286 94.857-25.714 139.429-45.714 1.143-9.143 2.857-18.857 2.857-28.571 0-5.143-0.571-10.857-1.714-16.571l-19.429-0.571c-81.143-2.286-161.143 10.286-242.857 10.286-57.714 0-115.429-10.286-173.143-10.286-0.571 9.714-1.714 20-1.714 29.714v5.143c21.714 34.857 100 35.429 136 56.571 12.571 28 10.857 182.857 10.857 218.857 0 115.429-3.429 230.857-3.429 346.286v66.857c0 10.286 2.286 51.429-4.571 59.429-8 8.571-82.857 6.857-92.571 6.857-21.143 0-82.286-9.714-98.857-21.714-27.429-18.857-27.429-133.143-61.714-135.429-10.286 6.286-24.571 15.429-32 25.143v218.857z" />
<glyph unicode="&#xf035;" glyph-name="text-width" horiz-adv-x="878" d="M46.286 864.343l30.857-15.429c4-1.714 108.571-2.857 120.571-2.857 50.286 0 100.571 2.286 150.857 2.286 151.429 0 304.571 3.429 456-1.714 12.571-0.571 24.571 7.429 32 17.714l24 0.571c5.143 0 10.857-0.571 16-0.571 1.143-64 1.143-128 1.143-192 0-20.571 0.571-42.286-2.857-62.286-12.571-4.571-25.714-8.571-38.857-10.286-13.143 22.857-22.286 48-30.857 73.143-4 11.429-18.286 88.571-18.857 89.714-4 5.143-9.143 8.571-15.429 10.857-4.571 1.714-32 1.143-37.714 1.143-70.286 0-151.429 4-220.571-4-2.857-25.143-5.143-52-4.571-77.714l0.571-86.857v29.714c0.571-93.143 1.714-185.714 1.714-278.286 0-44-6.857-90.286 5.714-132.571 43.429-22.286 94.857-25.714 139.429-45.714 1.143-9.143 2.857-18.857 2.857-28.571 0-5.143-0.571-10.857-1.714-16.571l-19.429-0.571c-81.143-2.286-161.143 10.286-242.857 10.286-57.714 0-115.429-10.286-173.143-10.286-0.571 9.714-1.714 20-1.714 29.714v5.143c21.714 34.857 100 35.429 136 56.571 14.286 32 10.286 302.286 10.286 352.571 0 8-2.857 16.571-2.857 25.143 0 23.429 4 157.714-4.571 167.429-8 8.571-82.857 6.857-92.571 6.857-24 0-158.286-12.571-172-21.714-26.857-17.714-27.429-132.571-61.714-135.429-10.286 6.286-24.571 15.429-32 25.143v218.857zM748.571 131.771c20 0 96-68 111.429-80 8.571-6.857 14.857-16.571 14.857-28s-6.286-21.143-14.857-28c-15.429-12-91.429-80-111.429-80-26.286 0-17.143 61.143-17.143 71.429h-585.143c0-10.286 9.143-71.429-17.143-71.429-20 0-96 68-111.429 80-8.571 6.857-14.857 16.571-14.857 28s6.286 21.143 14.857 28c15.429 12 91.429 80 111.429 80 26.286 0 17.143-61.143 17.143-71.429h585.143c0 10.286-9.143 71.429 17.143 71.429z" />
<glyph unicode="&#xf036;" glyph-name="align-left" d="M1024 170.057v-73.143c0-20-16.571-36.571-36.571-36.571h-950.857c-20 0-36.571 16.571-36.571 36.571v73.143c0 20 16.571 36.571 36.571 36.571h950.857c20 0 36.571-16.571 36.571-36.571zM804.571 389.486v-73.143c0-20-16.571-36.571-36.571-36.571h-731.429c-20 0-36.571 16.571-36.571 36.571v73.143c0 20 16.571 36.571 36.571 36.571h731.429c20 0 36.571-16.571 36.571-36.571zM950.857 608.914v-73.143c0-20-16.571-36.571-36.571-36.571h-877.714c-20 0-36.571 16.571-36.571 36.571v73.143c0 20 16.571 36.571 36.571 36.571h877.714c20 0 36.571-16.571 36.571-36.571zM731.429 828.343v-73.143c0-20-16.571-36.571-36.571-36.571h-658.286c-20 0-36.571 16.571-36.571 36.571v73.143c0 20 16.571 36.571 36.571 36.571h658.286c20 0 36.571-16.571 36.571-36.571z" />
<glyph unicode="&#xf037;" glyph-name="align-center" d="M1024 170.057v-73.143c0-20-16.571-36.571-36.571-36.571h-950.857c-20 0-36.571 16.571-36.571 36.571v73.143c0 20 16.571 36.571 36.571 36.571h950.857c20 0 36.571-16.571 36.571-36.571zM804.571 389.486v-73.143c0-20-16.571-36.571-36.571-36.571h-512c-20 0-36.571 16.571-36.571 36.571v73.143c0 20 16.571 36.571 36.571 36.571h512c20 0 36.571-16.571 36.571-36.571zM950.857 608.914v-73.143c0-20-16.571-36.571-36.571-36.571h-804.571c-20 0-36.571 16.571-36.571 36.571v73.143c0 20 16.571 36.571 36.571 36.571h804.571c20 0 36.571-16.571 36.571-36.571zM731.429 828.343v-73.143c0-20-16.571-36.571-36.571-36.571h-365.714c-20 0-36.571 16.571-36.571 36.571v73.143c0 20 16.571 36.571 36.571 36.571h365.714c20 0 36.571-16.571 36.571-36.571z" />
<glyph unicode="&#xf038;" glyph-name="align-right" d="M1024 170.057v-73.143c0-20-16.571-36.571-36.571-36.571h-950.857c-20 0-36.571 16.571-36.571 36.571v73.143c0 20 16.571 36.571 36.571 36.571h950.857c20 0 36.571-16.571 36.571-36.571zM1024 389.486v-73.143c0-20-16.571-36.571-36.571-36.571h-731.429c-20 0-36.571 16.571-36.571 36.571v73.143c0 20 16.571 36.571 36.571 36.571h731.429c20 0 36.571-16.571 36.571-36.571zM1024 608.914v-73.143c0-20-16.571-36.571-36.571-36.571h-877.714c-20 0-36.571 16.571-36.571 36.571v73.143c0 20 16.571 36.571 36.571 36.571h877.714c20 0 36.571-16.571 36.571-36.571zM1024 828.343v-73.143c0-20-16.571-36.571-36.571-36.571h-658.286c-20 0-36.571 16.571-36.571 36.571v73.143c0 20 16.571 36.571 36.571 36.571h658.286c20 0 36.571-16.571 36.571-36.571z" />
<glyph unicode="&#xf039;" glyph-name="align-justify" d="M1024 170.057v-73.143c0-20-16.571-36.571-36.571-36.571h-950.857c-20 0-36.571 16.571-36.571 36.571v73.143c0 20 16.571 36.571 36.571 36.571h950.857c20 0 36.571-16.571 36.571-36.571zM1024 389.486v-73.143c0-20-16.571-36.571-36.571-36.571h-950.857c-20 0-36.571 16.571-36.571 36.571v73.143c0 20 16.571 36.571 36.571 36.571h950.857c20 0 36.571-16.571 36.571-36.571zM1024 608.914v-73.143c0-20-16.571-36.571-36.571-36.571h-950.857c-20 0-36.571 16.571-36.571 36.571v73.143c0 20 16.571 36.571 36.571 36.571h950.857c20 0 36.571-16.571 36.571-36.571zM1024 828.343v-73.143c0-20-16.571-36.571-36.571-36.571h-950.857c-20 0-36.571 16.571-36.571 36.571v73.143c0 20 16.571 36.571 36.571 36.571h950.857c20 0 36.571-16.571 36.571-36.571z" />
<glyph unicode="&#xf03a;" glyph-name="list" d="M146.286 188.343v-109.714c0-9.714-8.571-18.286-18.286-18.286h-109.714c-9.714 0-18.286 8.571-18.286 18.286v109.714c0 9.714 8.571 18.286 18.286 18.286h109.714c9.714 0 18.286-8.571 18.286-18.286zM146.286 407.771v-109.714c0-9.714-8.571-18.286-18.286-18.286h-109.714c-9.714 0-18.286 8.571-18.286 18.286v109.714c0 9.714 8.571 18.286 18.286 18.286h109.714c9.714 0 18.286-8.571 18.286-18.286zM146.286 627.2v-109.714c0-9.714-8.571-18.286-18.286-18.286h-109.714c-9.714 0-18.286 8.571-18.286 18.286v109.714c0 9.714 8.571 18.286 18.286 18.286h109.714c9.714 0 18.286-8.571 18.286-18.286zM1024 188.343v-109.714c0-9.714-8.571-18.286-18.286-18.286h-768c-9.714 0-18.286 8.571-18.286 18.286v109.714c0 9.714 8.571 18.286 18.286 18.286h768c9.714 0 18.286-8.571 18.286-18.286zM146.286 846.628v-109.714c0-9.714-8.571-18.286-18.286-18.286h-109.714c-9.714 0-18.286 8.571-18.286 18.286v109.714c0 9.714 8.571 18.286 18.286 18.286h109.714c9.714 0 18.286-8.571 18.286-18.286zM1024 407.771v-109.714c0-9.714-8.571-18.286-18.286-18.286h-768c-9.714 0-18.286 8.571-18.286 18.286v109.714c0 9.714 8.571 18.286 18.286 18.286h768c9.714 0 18.286-8.571 18.286-18.286zM1024 627.2v-109.714c0-9.714-8.571-18.286-18.286-18.286h-768c-9.714 0-18.286 8.571-18.286 18.286v109.714c0 9.714 8.571 18.286 18.286 18.286h768c9.714 0 18.286-8.571 18.286-18.286zM1024 846.628v-109.714c0-9.714-8.571-18.286-18.286-18.286h-768c-9.714 0-18.286 8.571-18.286 18.286v109.714c0 9.714 8.571 18.286 18.286 18.286h768c9.714 0 18.286-8.571 18.286-18.286z" />
<glyph unicode="&#xf03b;" glyph-name="dedent" d="M219.429 627.2v-329.143c0-9.714-8.571-18.286-18.286-18.286-4.571 0-9.714 1.714-13.143 5.143l-164.571 164.571c-3.429 3.429-5.143 8.571-5.143 13.143s1.714 9.714 5.143 13.143l164.571 164.571c3.429 3.429 8.571 5.143 13.143 5.143 9.714 0 18.286-8.571 18.286-18.286zM1024 188.343v-109.714c0-9.714-8.571-18.286-18.286-18.286h-987.429c-9.714 0-18.286 8.571-18.286 18.286v109.714c0 9.714 8.571 18.286 18.286 18.286h987.429c9.714 0 18.286-8.571 18.286-18.286zM1024 407.771v-109.714c0-9.714-8.571-18.286-18.286-18.286h-621.714c-9.714 0-18.286 8.571-18.286 18.286v109.714c0 9.714 8.571 18.286 18.286 18.286h621.714c9.714 0 18.286-8.571 18.286-18.286zM1024 627.2v-109.714c0-9.714-8.571-18.286-18.286-18.286h-621.714c-9.714 0-18.286 8.571-18.286 18.286v109.714c0 9.714 8.571 18.286 18.286 18.286h621.714c9.714 0 18.286-8.571 18.286-18.286zM1024 846.628v-109.714c0-9.714-8.571-18.286-18.286-18.286h-987.429c-9.714 0-18.286 8.571-18.286 18.286v109.714c0 9.714 8.571 18.286 18.286 18.286h987.429c9.714 0 18.286-8.571 18.286-18.286z" />
<glyph unicode="&#xf03c;" glyph-name="indent" d="M201.143 462.628c0-4.571-1.714-9.714-5.143-13.143l-164.571-164.571c-3.429-3.429-8.571-5.143-13.143-5.143-9.714 0-18.286 8.571-18.286 18.286v329.143c0 9.714 8.571 18.286 18.286 18.286 4.571 0 9.714-1.714 13.143-5.143l164.571-164.571c3.429-3.429 5.143-8.571 5.143-13.143zM1024 188.343v-109.714c0-9.714-8.571-18.286-18.286-18.286h-987.429c-9.714 0-18.286 8.571-18.286 18.286v109.714c0 9.714 8.571 18.286 18.286 18.286h987.429c9.714 0 18.286-8.571 18.286-18.286zM1024 407.771v-109.714c0-9.714-8.571-18.286-18.286-18.286h-621.714c-9.714 0-18.286 8.571-18.286 18.286v109.714c0 9.714 8.571 18.286 18.286 18.286h621.714c9.714 0 18.286-8.571 18.286-18.286zM1024 627.2v-109.714c0-9.714-8.571-18.286-18.286-18.286h-621.714c-9.714 0-18.286 8.571-18.286 18.286v109.714c0 9.714 8.571 18.286 18.286 18.286h621.714c9.714 0 18.286-8.571 18.286-18.286zM1024 846.628v-109.714c0-9.714-8.571-18.286-18.286-18.286h-987.429c-9.714 0-18.286 8.571-18.286 18.286v109.714c0 9.714 8.571 18.286 18.286 18.286h987.429c9.714 0 18.286-8.571 18.286-18.286z" />
<glyph unicode="&#xf03d;" glyph-name="video-camera" d="M1024 736.914v-621.714c0-14.857-9.143-28-22.286-33.714-4.571-1.714-9.714-2.857-14.286-2.857-9.714 0-18.857 3.429-25.714 10.857l-230.286 230.286v-94.857c0-90.857-73.714-164.571-164.571-164.571h-402.286c-90.857 0-164.571 73.714-164.571 164.571v402.286c0 90.857 73.714 164.571 164.571 164.571h402.286c90.857 0 164.571-73.714 164.571-164.571v-94.286l230.286 229.714c6.857 7.429 16 10.857 25.714 10.857 4.571 0 9.714-1.143 14.286-2.857 13.143-5.714 22.286-18.857 22.286-33.714z" />
<glyph unicode="&#xf03e;" glyph-name="image" horiz-adv-x="1097" d="M365.714 608.914c0-60.571-49.143-109.714-109.714-109.714s-109.714 49.143-109.714 109.714 49.143 109.714 109.714 109.714 109.714-49.143 109.714-109.714zM950.857 389.486v-256h-804.571v109.714l182.857 182.857 91.429-91.429 292.571 292.571zM1005.714 791.771h-914.286c-9.714 0-18.286-8.571-18.286-18.286v-694.857c0-9.714 8.571-18.286 18.286-18.286h914.286c9.714 0 18.286 8.571 18.286 18.286v694.857c0 9.714-8.571 18.286-18.286 18.286zM1097.143 773.486v-694.857c0-50.286-41.143-91.429-91.429-91.429h-914.286c-50.286 0-91.429 41.143-91.429 91.429v694.857c0 50.286 41.143 91.429 91.429 91.429h914.286c50.286 0 91.429-41.143 91.429-91.429z" />
<glyph unicode="&#xf040;" glyph-name="pencil" horiz-adv-x="866" d="M207.429 60.343l52 52-134.286 134.286-52-52v-61.143h73.143v-73.143h61.143zM506.286 590.628c0 7.429-5.143 12.571-12.571 12.571-3.429 0-6.857-1.143-9.714-4l-309.714-309.714c-2.857-2.857-4-6.286-4-9.714 0-7.429 5.143-12.571 12.571-12.571 3.429 0 6.857 1.143 9.714 4l309.714 309.714c2.857 2.857 4 6.286 4 9.714zM475.429 700.343l237.714-237.714-475.429-475.429h-237.714v237.714zM865.714 645.486c0-19.429-8-38.286-21.143-51.429l-94.857-94.857-237.714 237.714 94.857 94.286c13.143 13.714 32 21.714 51.429 21.714s38.286-8 52-21.714l134.286-133.714c13.143-13.714 21.143-32.571 21.143-52z" />
<glyph unicode="&#xf041;" glyph-name="map-marker" horiz-adv-x="585" d="M438.857 572.343c0 80.571-65.714 146.286-146.286 146.286s-146.286-65.714-146.286-146.286 65.714-146.286 146.286-146.286 146.286 65.714 146.286 146.286zM585.143 572.343c0-34.857-4-70.857-18.857-102.286l-208-442.286c-12-25.143-38.286-40.571-65.714-40.571s-53.714 15.429-65.143 40.571l-208.571 442.286c-14.857 31.429-18.857 67.429-18.857 102.286 0 161.714 130.857 292.571 292.571 292.571s292.571-130.857 292.571-292.571z" />
<glyph unicode="&#xf042;" glyph-name="adjust" horiz-adv-x="878" d="M438.857 115.2v621.714c-171.429 0-310.857-139.429-310.857-310.857s139.429-310.857 310.857-310.857zM877.714 426.057c0-242.286-196.571-438.857-438.857-438.857s-438.857 196.571-438.857 438.857 196.571 438.857 438.857 438.857 438.857-196.571 438.857-438.857z" />
<glyph unicode="&#xf043;" glyph-name="tint" horiz-adv-x="585" d="M292.571 279.771c0 14.286-4.571 28-11.429 39.429-7.429 11.429-37.714 50.286-49.714 88.571-1.714 6.286-7.429 9.143-12 9.143s-10.286-2.857-12-9.143c-12-38.286-42.286-77.143-49.714-88.571-6.857-11.429-11.429-25.143-11.429-39.429 0-40.571 32.571-73.143 73.143-73.143s73.143 32.571 73.143 73.143zM585.143 352.914c0-161.714-130.857-292.571-292.571-292.571s-292.571 130.857-292.571 292.571c0 57.714 17.714 111.429 46.286 157.143 29.143 45.714 151.429 200.571 197.714 354.857 7.429 24.571 30.286 36.571 48.571 36.571s41.714-12 48.571-36.571c46.286-154.286 168.571-309.143 197.714-354.857s46.286-99.429 46.286-157.143z" />
<glyph unicode="&#xf044;" glyph-name="edit" horiz-adv-x="1025" d="M507.429 261.486l66.286 66.286-86.857 86.857-66.286-66.286v-32h54.857v-54.857h32zM758.857 672.914c-5.143 5.143-13.714 4.571-18.857-0.571l-200-200c-5.143-5.143-5.714-13.714-0.571-18.857s13.714-4.571 18.857 0.571l200 200c5.143 5.143 5.714 13.714 0.571 18.857zM804.571 333.486v-108.571c0-90.857-73.714-164.571-164.571-164.571h-475.429c-90.857 0-164.571 73.714-164.571 164.571v475.429c0 90.857 73.714 164.571 164.571 164.571h475.429c22.857 0 45.714-4.571 66.857-14.286 5.143-2.286 9.143-7.429 10.286-13.143 1.143-6.286-0.571-12-5.143-16.571l-28-28c-5.143-5.143-12-6.857-18.286-4.571-8.571 2.286-17.143 3.429-25.714 3.429h-475.429c-50.286 0-91.429-41.143-91.429-91.429v-475.429c0-50.286 41.143-91.429 91.429-91.429h475.429c50.286 0 91.429 41.143 91.429 91.429v72c0 4.571 1.714 9.143 5.143 12.571l36.571 36.571c5.714 5.714 13.143 6.857 20 4s11.429-9.143 11.429-16.571zM749.714 755.2l164.571-164.571-384-384h-164.571v164.571zM1003.429 679.771l-52.571-52.571-164.571 164.571 52.571 52.571c21.143 21.143 56.571 21.143 77.714 0l86.857-86.857c21.143-21.143 21.143-56.571 0-77.714z" />
<glyph unicode="&#xf045;" glyph-name="share-square-o" horiz-adv-x="954" d="M804.571 372.914v-148c0-90.857-73.714-164.571-164.571-164.571h-475.429c-90.857 0-164.571 73.714-164.571 164.571v475.429c0 90.857 73.714 164.571 164.571 164.571h145.714c9.714 0 18.286-8 18.286-18.286 0-9.143-6.286-16.571-14.857-18.286-28.571-9.714-54.286-21.143-76-34.286-2.857-1.143-5.714-2.286-9.143-2.286h-64c-50.286 0-91.429-41.143-91.429-91.429v-475.429c0-50.286 41.143-91.429 91.429-91.429h475.429c50.286 0 91.429 41.143 91.429 91.429v122.286c0 6.857 4 13.143 10.286 16.571 11.429 5.143 21.714 12.571 30.857 21.143 5.143 5.143 13.143 7.429 20 4.571s12-9.143 12-16.571zM940 656.343l-219.429-219.429c-6.857-7.429-16-10.857-25.714-10.857-4.571 0-9.714 1.143-14.286 2.857-13.143 5.714-22.286 18.857-22.286 33.714v109.714h-91.429c-125.714 0-205.714-24-250.286-74.857-46.286-53.143-60-138.857-42.286-270.286 1.143-8-4-16-11.429-19.429-2.286-0.571-4.571-1.143-6.857-1.143-5.714 0-11.429 2.857-14.857 7.429-4 5.714-94.857 134.286-94.857 248.571 0 153.143 48 329.143 420.571 329.143h91.429v109.714c0 14.857 9.143 28 22.286 33.714 4.571 1.714 9.714 2.857 14.286 2.857 9.714 0 18.857-4 25.714-10.857l219.429-219.429c14.286-14.286 14.286-37.143 0-51.429z" />
<glyph unicode="&#xf046;" glyph-name="check-square-o" horiz-adv-x="955" d="M804.571 406.628v-181.714c0-90.857-73.714-164.571-164.571-164.571h-475.429c-90.857 0-164.571 73.714-164.571 164.571v475.429c0 90.857 73.714 164.571 164.571 164.571h475.429c22.857 0 45.714-4.571 66.857-14.286 5.143-2.286 9.143-7.429 10.286-13.143 1.143-6.286-0.571-12-5.143-16.571l-28-28c-3.429-3.429-8.571-5.714-13.143-5.714-1.714 0-3.429 0.571-5.143 1.143-8.571 2.286-17.143 3.429-25.714 3.429h-475.429c-50.286 0-91.429-41.143-91.429-91.429v-475.429c0-50.286 41.143-91.429 91.429-91.429h475.429c50.286 0 91.429 41.143 91.429 91.429v145.143c0 4.571 1.714 9.143 5.143 12.571l36.571 36.571c4 4 8.571 5.714 13.143 5.714 2.286 0 4.571-0.571 6.857-1.714 6.857-2.857 11.429-9.143 11.429-16.571zM936.571 686.057l-465.143-465.143c-18.286-18.286-46.857-18.286-65.143 0l-245.714 245.714c-18.286 18.286-18.286 46.857 0 65.143l62.857 62.857c18.286 18.286 46.857 18.286 65.143 0l150.286-150.286 369.714 369.714c18.286 18.286 46.857 18.286 65.143 0l62.857-62.857c18.286-18.286 18.286-46.857 0-65.143z" />
<glyph unicode="&#xf047;" glyph-name="arrows" d="M1024 426.057c0-9.714-4-18.857-10.857-25.714l-146.286-146.286c-6.857-6.857-16-10.857-25.714-10.857-20 0-36.571 16.571-36.571 36.571v73.143h-219.429v-219.429h73.143c20 0 36.571-16.571 36.571-36.571 0-9.714-4-18.857-10.857-25.714l-146.286-146.286c-6.857-6.857-16-10.857-25.714-10.857s-18.857 4-25.714 10.857l-146.286 146.286c-6.857 6.857-10.857 16-10.857 25.714 0 20 16.571 36.571 36.571 36.571h73.143v219.429h-219.429v-73.143c0-20-16.571-36.571-36.571-36.571-9.714 0-18.857 4-25.714 10.857l-146.286 146.286c-6.857 6.857-10.857 16-10.857 25.714s4 18.857 10.857 25.714l146.286 146.286c6.857 6.857 16 10.857 25.714 10.857 20 0 36.571-16.571 36.571-36.571v-73.143h219.429v219.429h-73.143c-20 0-36.571 16.571-36.571 36.571 0 9.714 4 18.857 10.857 25.714l146.286 146.286c6.857 6.857 16 10.857 25.714 10.857s18.857-4 25.714-10.857l146.286-146.286c6.857-6.857 10.857-16 10.857-25.714 0-20-16.571-36.571-36.571-36.571h-73.143v-219.429h219.429v73.143c0 20 16.571 36.571 36.571 36.571 9.714 0 18.857-4 25.714-10.857l146.286-146.286c6.857-6.857 10.857-16 10.857-25.714z" />
<glyph unicode="&#xf048;" glyph-name="step-backward" horiz-adv-x="585" d="M559.429 857.486c14.286 14.286 25.714 9.143 25.714-10.857v-841.143c0-20-11.429-25.143-25.714-10.857l-405.714 405.714c-3.429 3.429-5.714 6.857-7.429 10.857v-387.429c0-20-16.571-36.571-36.571-36.571h-73.143c-20 0-36.571 16.571-36.571 36.571v804.571c0 20 16.571 36.571 36.571 36.571h73.143c20 0 36.571-16.571 36.571-36.571v-387.429c1.714 4 4 7.429 7.429 10.857z" />
<glyph unicode="&#xf049;" glyph-name="fast-backward" d="M998.286 857.486c14.286 14.286 25.714 9.143 25.714-10.857v-841.143c0-20-11.429-25.143-25.714-10.857l-405.714 405.714c-3.429 3.429-5.714 6.857-7.429 10.857v-405.714c0-20-11.429-25.143-25.714-10.857l-405.714 405.714c-3.429 3.429-5.714 6.857-7.429 10.857v-387.429c0-20-16.571-36.571-36.571-36.571h-73.143c-20 0-36.571 16.571-36.571 36.571v804.571c0 20 16.571 36.571 36.571 36.571h73.143c20 0 36.571-16.571 36.571-36.571v-387.429c1.714 4 4 7.429 7.429 10.857l405.714 405.714c14.286 14.286 25.714 9.143 25.714-10.857v-405.714c1.714 4 4 7.429 7.429 10.857z" />
<glyph unicode="&#xf04a;" glyph-name="backward" horiz-adv-x="1017" d="M925.143 857.486c14.286 14.286 25.714 9.143 25.714-10.857v-841.143c0-20-11.429-25.143-25.714-10.857l-405.714 405.714c-3.429 3.429-5.714 6.857-7.429 10.857v-405.714c0-20-11.429-25.143-25.714-10.857l-405.714 405.714c-14.286 14.286-14.286 37.143 0 51.429l405.714 405.714c14.286 14.286 25.714 9.143 25.714-10.857v-405.714c1.714 4 4 7.429 7.429 10.857z" />
<glyph unicode="&#xf04b;" glyph-name="play" horiz-adv-x="809" d="M790.857 408.343l-758.857-421.714c-17.714-9.714-32-1.143-32 18.857v841.143c0 20 14.286 28.571 32 18.857l758.857-421.714c17.714-9.714 17.714-25.714 0-35.429z" />
<glyph unicode="&#xf04c;" glyph-name="pause" horiz-adv-x="878" d="M877.714 828.343v-804.571c0-20-16.571-36.571-36.571-36.571h-292.571c-20 0-36.571 16.571-36.571 36.571v804.571c0 20 16.571 36.571 36.571 36.571h292.571c20 0 36.571-16.571 36.571-36.571zM365.714 828.343v-804.571c0-20-16.571-36.571-36.571-36.571h-292.571c-20 0-36.571 16.571-36.571 36.571v804.571c0 20 16.571 36.571 36.571 36.571h292.571c20 0 36.571-16.571 36.571-36.571z" />
<glyph unicode="&#xf04d;" glyph-name="stop" horiz-adv-x="878" d="M877.714 828.343v-804.571c0-20-16.571-36.571-36.571-36.571h-804.571c-20 0-36.571 16.571-36.571 36.571v804.571c0 20 16.571 36.571 36.571 36.571h804.571c20 0 36.571-16.571 36.571-36.571z" />
<glyph unicode="&#xf04e;" glyph-name="forward" horiz-adv-x="885" d="M25.714-5.372c-14.286-14.286-25.714-9.143-25.714 10.857v841.143c0 20 11.429 25.143 25.714 10.857l405.714-405.714c3.429-3.429 5.714-6.857 7.429-10.857v405.714c0 20 11.429 25.143 25.714 10.857l405.714-405.714c14.286-14.286 14.286-37.143 0-51.429l-405.714-405.714c-14.286-14.286-25.714-9.143-25.714 10.857v405.714c-1.714-4-4-7.429-7.429-10.857z" />
<glyph unicode="&#xf050;" glyph-name="fast-forward" d="M25.714-5.372c-14.286-14.286-25.714-9.143-25.714 10.857v841.143c0 20 11.429 25.143 25.714 10.857l405.714-405.714c3.429-3.429 5.714-6.857 7.429-10.857v405.714c0 20 11.429 25.143 25.714 10.857l405.714-405.714c3.429-3.429 5.714-6.857 7.429-10.857v387.429c0 20 16.571 36.571 36.571 36.571h73.143c20 0 36.571-16.571 36.571-36.571v-804.571c0-20-16.571-36.571-36.571-36.571h-73.143c-20 0-36.571 16.571-36.571 36.571v387.429c-1.714-4-4-7.429-7.429-10.857l-405.714-405.714c-14.286-14.286-25.714-9.143-25.714 10.857v405.714c-1.714-4-4-7.429-7.429-10.857z" />
<glyph unicode="&#xf051;" glyph-name="step-forward" horiz-adv-x="585" d="M25.714-5.372c-14.286-14.286-25.714-9.143-25.714 10.857v841.143c0 20 11.429 25.143 25.714 10.857l405.714-405.714c3.429-3.429 5.714-6.857 7.429-10.857v387.429c0 20 16.571 36.571 36.571 36.571h73.143c20 0 36.571-16.571 36.571-36.571v-804.571c0-20-16.571-36.571-36.571-36.571h-73.143c-20 0-36.571 16.571-36.571 36.571v387.429c-1.714-4-4-7.429-7.429-10.857z" />
<glyph unicode="&#xf052;" glyph-name="eject" horiz-adv-x="879" d="M8 378.628l405.714 405.714c14.286 14.286 37.143 14.286 51.429 0l405.714-405.714c14.286-14.286 9.143-25.714-10.857-25.714h-841.143c-20 0-25.143 11.429-10.857 25.714zM841.714 60.343h-804.571c-20 0-36.571 16.571-36.571 36.571v146.286c0 20 16.571 36.571 36.571 36.571h804.571c20 0 36.571-16.571 36.571-36.571v-146.286c0-20-16.571-36.571-36.571-36.571z" />
<glyph unicode="&#xf053;" glyph-name="chevron-left" horiz-adv-x="768" d="M669.143 766.057l-303.429-303.429 303.429-303.429c14.286-14.286 14.286-37.143 0-51.429l-94.857-94.857c-14.286-14.286-37.143-14.286-51.429 0l-424 424c-14.286 14.286-14.286 37.143 0 51.429l424 424c14.286 14.286 37.143 14.286 51.429 0l94.857-94.857c14.286-14.286 14.286-37.143 0-51.429z" />
<glyph unicode="&#xf054;" glyph-name="chevron-right" horiz-adv-x="695" d="M632.571 436.914l-424-424c-14.286-14.286-37.143-14.286-51.429 0l-94.857 94.857c-14.286 14.286-14.286 37.143 0 51.429l303.429 303.429-303.429 303.429c-14.286 14.286-14.286 37.143 0 51.429l94.857 94.857c14.286 14.286 37.143 14.286 51.429 0l424-424c14.286-14.286 14.286-37.143 0-51.429z" />
<glyph unicode="&#xf055;" glyph-name="plus-circle" horiz-adv-x="878" d="M694.857 389.486v73.143c0 20-16.571 36.571-36.571 36.571h-146.286v146.286c0 20-16.571 36.571-36.571 36.571h-73.143c-20 0-36.571-16.571-36.571-36.571v-146.286h-146.286c-20 0-36.571-16.571-36.571-36.571v-73.143c0-20 16.571-36.571 36.571-36.571h146.286v-146.286c0-20 16.571-36.571 36.571-36.571h73.143c20 0 36.571 16.571 36.571 36.571v146.286h146.286c20 0 36.571 16.571 36.571 36.571zM877.714 426.057c0-242.286-196.571-438.857-438.857-438.857s-438.857 196.571-438.857 438.857 196.571 438.857 438.857 438.857 438.857-196.571 438.857-438.857z" />
<glyph unicode="&#xf056;" glyph-name="minus-circle" horiz-adv-x="878" d="M694.857 389.486v73.143c0 20-16.571 36.571-36.571 36.571h-438.857c-20 0-36.571-16.571-36.571-36.571v-73.143c0-20 16.571-36.571 36.571-36.571h438.857c20 0 36.571 16.571 36.571 36.571zM877.714 426.057c0-242.286-196.571-438.857-438.857-438.857s-438.857 196.571-438.857 438.857 196.571 438.857 438.857 438.857 438.857-196.571 438.857-438.857z" />
<glyph unicode="&#xf057;" glyph-name="times-circle" horiz-adv-x="878" d="M656.571 296.914c0 9.714-4 18.857-10.857 25.714l-103.429 103.429 103.429 103.429c6.857 6.857 10.857 16 10.857 25.714s-4 19.429-10.857 26.286l-51.429 51.429c-6.857 6.857-16.571 10.857-26.286 10.857s-18.857-4-25.714-10.857l-103.429-103.429-103.429 103.429c-6.857 6.857-16 10.857-25.714 10.857s-19.429-4-26.286-10.857l-51.429-51.429c-6.857-6.857-10.857-16.571-10.857-26.286s4-18.857 10.857-25.714l103.429-103.429-103.429-103.429c-6.857-6.857-10.857-16-10.857-25.714s4-19.429 10.857-26.286l51.429-51.429c6.857-6.857 16.571-10.857 26.286-10.857s18.857 4 25.714 10.857l103.429 103.429 103.429-103.429c6.857-6.857 16-10.857 25.714-10.857s19.429 4 26.286 10.857l51.429 51.429c6.857 6.857 10.857 16.571 10.857 26.286zM877.714 426.057c0-242.286-196.571-438.857-438.857-438.857s-438.857 196.571-438.857 438.857 196.571 438.857 438.857 438.857 438.857-196.571 438.857-438.857z" />
<glyph unicode="&#xf058;" glyph-name="check-circle" horiz-adv-x="878" d="M733.714 518.628c0 9.714-3.429 19.429-10.286 26.286l-52 51.429c-6.857 6.857-16 10.857-25.714 10.857s-18.857-4-25.714-10.857l-233.143-232.571-129.143 129.143c-6.857 6.857-16 10.857-25.714 10.857s-18.857-4-25.714-10.857l-52-51.429c-6.857-6.857-10.286-16.571-10.286-26.286s3.429-18.857 10.286-25.714l206.857-206.857c6.857-6.857 16.571-10.857 25.714-10.857 9.714 0 19.429 4 26.286 10.857l310.286 310.286c6.857 6.857 10.286 16 10.286 25.714zM877.714 426.057c0-242.286-196.571-438.857-438.857-438.857s-438.857 196.571-438.857 438.857 196.571 438.857 438.857 438.857 438.857-196.571 438.857-438.857z" />
<glyph unicode="&#xf059;" glyph-name="question-circle" horiz-adv-x="878" d="M512 151.771v109.714c0 10.286-8 18.286-18.286 18.286h-109.714c-10.286 0-18.286-8-18.286-18.286v-109.714c0-10.286 8-18.286 18.286-18.286h109.714c10.286 0 18.286 8 18.286 18.286zM658.286 535.771c0 104.571-109.714 182.857-208 182.857-93.143 0-162.857-40-212-121.714-5.143-8-2.857-18.286 4.571-24l75.429-57.143c2.857-2.286 6.857-3.429 10.857-3.429 5.143 0 10.857 2.286 14.286 6.857 26.857 34.286 38.286 44.571 49.143 52.571 9.714 6.857 28.571 13.714 49.143 13.714 36.571 0 70.286-23.429 70.286-48.571 0-29.714-15.429-44.571-50.286-60.571-40.571-18.286-96-65.714-96-121.143v-20.571c0-10.286 8-18.286 18.286-18.286h109.714c10.286 0 18.286 8 18.286 18.286v0c0 13.143 16.571 41.143 43.429 56.571 43.429 24.571 102.857 57.714 102.857 144.571zM877.714 426.057c0-242.286-196.571-438.857-438.857-438.857s-438.857 196.571-438.857 438.857 196.571 438.857 438.857 438.857 438.857-196.571 438.857-438.857z" />
<glyph unicode="&#xf05a;" glyph-name="info-circle" horiz-adv-x="878" d="M585.143 151.771v91.429c0 10.286-8 18.286-18.286 18.286h-54.857v292.571c0 10.286-8 18.286-18.286 18.286h-182.857c-10.286 0-18.286-8-18.286-18.286v-91.429c0-10.286 8-18.286 18.286-18.286h54.857v-182.857h-54.857c-10.286 0-18.286-8-18.286-18.286v-91.429c0-10.286 8-18.286 18.286-18.286h256c10.286 0 18.286 8 18.286 18.286zM512 663.771v91.429c0 10.286-8 18.286-18.286 18.286h-109.714c-10.286 0-18.286-8-18.286-18.286v-91.429c0-10.286 8-18.286 18.286-18.286h109.714c10.286 0 18.286 8 18.286 18.286zM877.714 426.057c0-242.286-196.571-438.857-438.857-438.857s-438.857 196.571-438.857 438.857 196.571 438.857 438.857 438.857 438.857-196.571 438.857-438.857z" />
<glyph unicode="&#xf05b;" glyph-name="crosshairs" horiz-adv-x="878" d="M684 352.914h-62.286c-20 0-36.571 16.571-36.571 36.571v73.143c0 20 16.571 36.571 36.571 36.571h62.286c-24.571 82.286-89.714 147.429-172 172v-62.286c0-20-16.571-36.571-36.571-36.571h-73.143c-20 0-36.571 16.571-36.571 36.571v62.286c-82.286-24.571-147.429-89.714-172-172h62.286c20 0 36.571-16.571 36.571-36.571v-73.143c0-20-16.571-36.571-36.571-36.571h-62.286c24.571-82.286 89.714-147.429 172-172v62.286c0 20 16.571 36.571 36.571 36.571h73.143c20 0 36.571-16.571 36.571-36.571v-62.286c82.286 24.571 147.429 89.714 172 172zM877.714 462.628v-73.143c0-20-16.571-36.571-36.571-36.571h-81.714c-28-122.857-124.571-219.429-247.429-247.429v-81.714c0-20-16.571-36.571-36.571-36.571h-73.143c-20 0-36.571 16.571-36.571 36.571v81.714c-122.857 28-219.429 124.571-247.429 247.429h-81.714c-20 0-36.571 16.571-36.571 36.571v73.143c0 20 16.571 36.571 36.571 36.571h81.714c28 122.857 124.571 219.429 247.429 247.429v81.714c0 20 16.571 36.571 36.571 36.571h73.143c20 0 36.571-16.571 36.571-36.571v-81.714c122.857-28 219.429-124.571 247.429-247.429h81.714c20 0 36.571-16.571 36.571-36.571z" />
<glyph unicode="&#xf05c;" glyph-name="times-circle-o" horiz-adv-x="878" d="M626.857 321.486l-83.429-83.429c-7.429-7.429-18.857-7.429-26.286 0l-78.286 78.286-78.286-78.286c-7.429-7.429-18.857-7.429-26.286 0l-83.429 83.429c-7.429 7.429-7.429 18.857 0 26.286l78.286 78.286-78.286 78.286c-7.429 7.429-7.429 18.857 0 26.286l83.429 83.429c7.429 7.429 18.857 7.429 26.286 0l78.286-78.286 78.286 78.286c7.429 7.429 18.857 7.429 26.286 0l83.429-83.429c7.429-7.429 7.429-18.857 0-26.286l-78.286-78.286 78.286-78.286c7.429-7.429 7.429-18.857 0-26.286zM749.714 426.057c0 171.429-139.429 310.857-310.857 310.857s-310.857-139.429-310.857-310.857 139.429-310.857 310.857-310.857 310.857 139.429 310.857 310.857zM877.714 426.057c0-242.286-196.571-438.857-438.857-438.857s-438.857 196.571-438.857 438.857 196.571 438.857 438.857 438.857 438.857-196.571 438.857-438.857z" />
<glyph unicode="&#xf05d;" glyph-name="check-circle-o" horiz-adv-x="878" d="M669.143 473.486l-241.143-241.143c-14.286-14.286-37.143-14.286-51.429 0l-168 168c-14.286 14.286-14.286 37.143 0 51.429l58.286 58.286c14.286 14.286 37.143 14.286 51.429 0l84-84 157.143 157.143c14.286 14.286 37.143 14.286 51.429 0l58.286-58.286c14.286-14.286 14.286-37.143 0-51.429zM749.714 426.057c0 171.429-139.429 310.857-310.857 310.857s-310.857-139.429-310.857-310.857 139.429-310.857 310.857-310.857 310.857 139.429 310.857 310.857zM877.714 426.057c0-242.286-196.571-438.857-438.857-438.857s-438.857 196.571-438.857 438.857 196.571 438.857 438.857 438.857 438.857-196.571 438.857-438.857z" />
<glyph unicode="&#xf05e;" glyph-name="ban" horiz-adv-x="878" d="M749.714 427.771c0 62.286-18.286 120-49.714 168.571l-430.857-430.286c49.143-32 107.429-50.857 169.714-50.857 171.429 0 310.857 140 310.857 312.571zM178.857 256.914l431.429 430.857c-49.143 33.143-108 52-171.429 52-171.429 0-310.857-140-310.857-312 0-63.429 18.857-121.714 50.857-170.857zM877.714 427.771c0-243.429-196.571-440.571-438.857-440.571s-438.857 197.143-438.857 440.571c0 242.857 196.571 440 438.857 440s438.857-197.143 438.857-440z" />
<glyph unicode="&#xf060;" glyph-name="arrow-left" horiz-adv-x="914" d="M877.714 426.057v-73.143c0-38.857-25.714-73.143-66.857-73.143h-402.286l167.429-168c13.714-13.143 21.714-32 21.714-51.429s-8-38.286-21.714-51.429l-42.857-43.429c-13.143-13.143-32-21.143-51.429-21.143s-38.286 8-52 21.143l-372 372.571c-13.143 13.143-21.143 32-21.143 51.429s8 38.286 21.143 52l372 371.429c13.714 13.714 32.571 21.714 52 21.714s37.714-8 51.429-21.714l42.857-42.286c13.714-13.714 21.714-32.571 21.714-52s-8-38.286-21.714-52l-167.429-167.429h402.286c41.143 0 66.857-34.286 66.857-73.143z" />
<glyph unicode="&#xf061;" glyph-name="arrow-right" horiz-adv-x="841" d="M841.143 389.486c0-19.429-7.429-38.286-21.143-52l-372-372c-13.714-13.143-32.571-21.143-52-21.143s-37.714 8-51.429 21.143l-42.857 42.857c-13.714 13.714-21.714 32.571-21.714 52s8 38.286 21.714 52l167.429 167.429h-402.286c-41.143 0-66.857 34.286-66.857 73.143v73.143c0 38.857 25.714 73.143 66.857 73.143h402.286l-167.429 168c-13.714 13.143-21.714 32-21.714 51.429s8 38.286 21.714 51.429l42.857 42.857c13.714 13.714 32 21.714 51.429 21.714s38.286-8 52-21.714l372-372c13.714-13.143 21.143-32 21.143-51.429z" />
<glyph unicode="&#xf062;" glyph-name="arrow-up" horiz-adv-x="951" d="M920.571 383.2c0-19.429-8-37.714-21.143-51.429l-42.857-42.857c-13.714-13.714-32.571-21.714-52-21.714s-38.286 8-51.429 21.714l-168 167.429v-402.286c0-41.143-34.286-66.857-73.143-66.857h-73.143c-38.857 0-73.143 25.714-73.143 66.857v402.286l-168-167.429c-13.143-13.714-32-21.714-51.429-21.714s-38.286 8-51.429 21.714l-42.857 42.857c-13.714 13.714-21.714 32-21.714 51.429s8 38.286 21.714 52l372 372c13.143 13.714 32 21.143 51.429 21.143s38.286-7.429 52-21.143l372-372c13.143-13.714 21.143-32.571 21.143-52z" />
<glyph unicode="&#xf063;" glyph-name="arrow-down" horiz-adv-x="951" d="M920.571 462.628c0-19.429-8-38.286-21.143-51.429l-372-372.571c-13.714-13.143-32.571-21.143-52-21.143s-38.286 8-51.429 21.143l-372 372.571c-13.714 13.143-21.714 32-21.714 51.429s8 38.286 21.714 52l42.286 42.857c13.714 13.143 32.571 21.143 52 21.143s38.286-8 51.429-21.143l168-168v402.286c0 40 33.143 73.143 73.143 73.143h73.143c40 0 73.143-33.143 73.143-73.143v-402.286l168 168c13.143 13.143 32 21.143 51.429 21.143s38.286-8 52-21.143l42.857-42.857c13.143-13.714 21.143-32.571 21.143-52z" />
<glyph unicode="&#xf064;" glyph-name="mail-forward" d="M1024 572.343c0-9.714-4-18.857-10.857-25.714l-292.571-292.571c-6.857-6.857-16-10.857-25.714-10.857-20 0-36.571 16.571-36.571 36.571v146.286h-128c-246.286 0-408-47.429-408-320 0-23.429 1.143-46.857 2.857-70.286 0.571-9.143 2.857-19.429 2.857-28.571 0-10.857-6.857-20-18.286-20-8 0-12 4-16 9.714-8.571 12-14.857 30.286-21.143 43.429-32.571 73.143-72.571 177.714-72.571 257.714 0 64 6.286 129.714 30.286 190.286 79.429 197.143 312.571 230.286 500 230.286h128v146.286c0 20 16.571 36.571 36.571 36.571 9.714 0 18.857-4 25.714-10.857l292.571-292.571c6.857-6.857 10.857-16 10.857-25.714z" />
<glyph unicode="&#xf065;" glyph-name="expand" horiz-adv-x="878" d="M431.429 334.628c0-4.571-2.286-9.714-5.714-13.143l-189.714-189.714 82.286-82.286c6.857-6.857 10.857-16 10.857-25.714 0-20-16.571-36.571-36.571-36.571h-256c-20 0-36.571 16.571-36.571 36.571v256c0 20 16.571 36.571 36.571 36.571 9.714 0 18.857-4 25.714-10.857l82.286-82.286 189.714 189.714c3.429 3.429 8.571 5.714 13.143 5.714s9.714-2.286 13.143-5.714l65.143-65.143c3.429-3.429 5.714-8.571 5.714-13.143zM877.714 828.343v-256c0-20-16.571-36.571-36.571-36.571-9.714 0-18.857 4-25.714 10.857l-82.286 82.286-189.714-189.714c-3.429-3.429-8.571-5.714-13.143-5.714s-9.714 2.286-13.143 5.714l-65.143 65.143c-3.429 3.429-5.714 8.571-5.714 13.143s2.286 9.714 5.714 13.143l189.714 189.714-82.286 82.286c-6.857 6.857-10.857 16-10.857 25.714 0 20 16.571 36.571 36.571 36.571h256c20 0 36.571-16.571 36.571-36.571z" />
</font>
</defs>
</svg>
